<?xml version="1.0" standalone="no"?>
<!DOCTYPE svg PUBLIC "-//W3C//DTD SVG 1.1//EN" "http://www.w3.org/Graphics/SVG/1.1/DTD/svg11.dtd" >
<svg xmlns="http://www.w3.org/2000/svg">
  <metadata>Created by iconfont</metadata>
  <defs>
  <font id="icon" horiz-adv-x="1024">
    <font-face
      font-family="icon"
      font-weight="400"
      font-stretch="normal"
      units-per-em="1024"
      ascent="896"
      descent="-128"
    />
      <missing-glyph />
      
      <glyph glyph-name="vips" unicode="&#58978;" d="M798.453125 749.625a56.25 56.25 0 0 0 48.571875-27.9l95.5125-163.771875a56.25 56.25 0 0 0-4.640625-63.478125l-360-450a84.375 84.375 0 0 0-131.79375 0l-360 450a56.25 56.25 0 0 0-4.640625 63.478125l95.5125 163.771875A56.25 56.25 0 0 0 225.546875 749.625h572.90625z m-180.16875-341.1l-94.8375-132.80625a14.0625 14.0625 0 0 0-22.89375 0l-94.8375 132.80625a42.1875 42.1875 0 1 1-68.68125-49.05l94.865625-132.778125a98.4375 98.4375 0 0 1 160.2 0l94.865625 132.778125a42.1875 42.1875 0 1 1-68.68125 49.05z"  horiz-adv-x="1024" />
      
      <glyph glyph-name="jiaoyu" unicode="&#58947;" d="M511.674 622.6S312.853 715.24 68.84 701.683l47.449-648.437s180.746 18.067 395.385-110.71c0 0 189.794 124.264 379.573 110.71l63.26 648.437S776.01 715.24 511.674 622.6z m-31.637-600.992c-149.11 81.342-316.307 79.086-316.307 79.086L132.1 654.236c171.712 9.04 347.937-94.897 347.937-94.897v-537.73z m379.572 79.086c-149.116 15.81-316.313-79.086-316.313-79.086V559.3399999999999c173.983 99.41 363.763 94.897 363.763 94.897l-47.45-553.542zM132.1 764.944v-31.637s158.157-23.718 189.787-47.45l79.078-31.622S355.496 757.038 132.1 764.9449999999999zM163.73 828.204l15.818-47.449s213.51-33.61 268.865-142.331h47.435S369.335 822.27 163.73 828.204zM622.381 654.236l79.086 31.623c31.623 23.73 189.779 47.449 189.779 47.449v31.637c-223.402-7.907-268.865-110.71-268.865-110.71zM527.485 638.424h47.449c55.354 108.722 268.864 142.331 268.864 142.331l15.811 47.449c-205.604-5.933-332.124-189.78-332.124-189.78z"  horiz-adv-x="1024" />
      
      <glyph glyph-name="yingxiao" unicode="&#58951;" d="M899.5 463.8v-258.4c0-49.9-37-89.5-81.6-89.5H205.3c-44.6 0-81.6 39.6-81.6 89.5V682.8c0 49.9 37 89.5 81.6 89.5h621.2c29.2 0 55.7-19.2 67.1-48.8 3.7-10.1 12.6-17.5 23.3-19.2 10.7-1.7 21.4 2.5 28.1 10.9 6.7 8.5 8.3 19.9 4.2 29.9C929 797 881 832 826.5 832H205.3C126.8 832 64 764.7 64 682.8v-477.4c0-81.9 62.8-149.2 141.3-149.2h612.6c78.5 0 141.3 67.3 141.3 149.2V463.8c0 16.5-13.4 29.8-29.8 29.8s-29.9-13.3-29.9-29.8zM374.5 271.9c3.2-12.1 13.7-21 26.2-22.1 12.5-1.1 24.4 5.7 29.7 17L538.8 498 619 398c5.3-6.6 13.2-10.7 21.7-11.1 8.5-0.5 16.8 2.7 22.8 8.8l159.8 161.2c7.7 7.5 10.8 18.6 8 29-2.8 10.4-11 18.5-21.4 21.2-10.4 2.7-21.5-0.5-29-8.2L644.6 461.4l-89.3 111.2c-6.4 8-16.6 12.2-26.8 11s-19.1-7.6-23.5-17l-93.8-200.1-29.1 110.6c-2.6 9.9-10.1 17.8-19.9 20.9-9.8 3.1-20.5 0.9-28.3-5.7L186 367.1c-12.1-10.8-13.5-29.2-3-41.6 10.5-12.4 28.9-14.1 41.5-3.9l111.9 94.7 38.1-144.4z m-77.7-328.2h413.8c17.5 0 31.8 13.4 31.8 29.8 0 16.5-14.3 29.8-31.8 29.8H296.8c-17.5 0-31.8-13.4-31.8-29.8s14.3-29.8 31.8-29.8z"  horiz-adv-x="1024" />
      
      <glyph glyph-name="xiaotubiao" unicode="&#58983;" d="M599.27272719 853.09090875h-174.54545438C239.27272719 853.09090875 86.54545438 700.36363594 86.54545438 514.9090912500001v-261.8181825c0-185.45454563 152.72727281-338.18181844 338.18181843-338.1818175h174.54545438c185.45454563 0 338.18181844 152.72727281 338.18181843 338.1818175V514.9090912500001C937.45454562 700.36363594 784.72727281 853.09090875 599.27272719 853.09090875zM872 253.09090875000004c0-102.54545437-56.72727281-192-139.63636406-237.81818156l-76.36363594 89.45454562c39.27272719 37.09090875 63.27272719 89.45454563 63.27272719 148.36363594 0 113.45454562-93.81818156 207.27272719-207.27272719 207.27272719s-207.27272719-93.81818156-207.27272719-207.27272719 93.81818156-207.27272719 207.27272719-207.27272719c32.72727281 0 63.27272719 8.72727281 91.63636406 21.8181825l65.45454469-78.54545531c-21.81818156-6.54545437-45.81818156-8.72727281-69.81818156-8.72727281h-174.54545438c-150.54545437 0-272.72727281 122.18181844-272.72727281 272.72727281V514.9090912500001C152 665.45454563 274.18181844 787.63636406 424.72727281 787.63636406h174.54545438c150.54545437 0 272.72727281-122.18181844 272.72727281-272.72727281v-261.8181825zM512 111.27272718999996c-78.54545438 0-141.81818156 63.27272719-141.81818156 141.81818156s63.27272719 141.81818156 141.81818156 141.8181825 141.81818156-63.27272719 141.81818156-141.8181825-63.27272719-141.81818156-141.81818156-141.81818156zM359.27272719 624h-21.81818157c-17.45454563 0-32.72727281-15.27272719-32.72727281-32.72727281S320 558.54545437 337.45454563 558.54545437h21.81818156c17.45454563 0 32.72727281 15.27272719 32.72727281 32.72727282S376.72727281 624 359.27272719 624zM664.72727281 624h-196.36363687c-17.45454563 0-32.72727281-15.27272719-32.72727188-32.72727281S450.90909125 558.54545437 468.36363594 558.54545437h196.36363687c17.45454563 0 32.72727281 15.27272719 32.72727281 32.72727282S682.18181844 624 664.72727281 624z"  horiz-adv-x="1024" />
      
      <glyph glyph-name="chatu" unicode="&#58910;" d="M914.39520928 668.73053906H256.91017959c-31.88622744 0-48.05389248-23.80239492-48.05389248-52.54491005v-629.64071895c0-29.1916169 17.06586856-52.54491006 48.05389248-52.54491006h657.48502968c31.88622744 0 48.05389248 23.80239492 48.05389248 52.54491006V616.18562901c0 29.1916169-17.06586856 52.54491006-48.05389248 52.54491005zM254.21556904 578.01197607c0 22.00598789 19.76047911 39.97005997 43.56287403 39.97005997h574.85029922c24.25149668 0 43.56287402-17.96407208 43.5628749-39.97005997v-443.26347275l-165.71856357 158.53293369c-11.22754482 10.32934131-26.04790459 10.32934131-37.72455029 2.69461055l-109.58083859-87.12574805-125.29940097 216.91616748c-5.83832373 5.38922197-11.22754482 7.63473076-20.20958086 10.32934131-8.53293428 0-14.37125713-2.69461055-20.20958086-7.63473077L254.21556904 241.18562871999995V578.01197607zM919.78443125 24.71856299000001c0-22.00598789-19.76047911-39.97005997-43.56287402-39.97005997H298.22754482c-24.25149668 0-43.56287402 17.96407208-43.56287402 39.97005997v141.91616777l203.89221563 206.13772442 115.86826318-219.16167716c8.53293428-10.32934131 26.04790459-10.32934131 40.41916172 1e-8l116.31736494 87.12574892 186.37724619-179.64071895s3.1437123 0 3.14371231-2.69461054v-33.68263447h-0.89820352z m-207.03592793 382.18562842c31.88622744 0 57.48503028 23.80239492 57.48502939 52.54491005s-26.04790459 52.54491006-57.48502938 52.54491094c-31.88622744 0-57.48503028-23.80239492-57.48503028-52.54491094s25.59880283-52.54491006 57.48503027-52.54491005zM103.766467 693.4311375c-1.34730527 8.08383252 4.94011934 15.71856328 13.92215537 16.6167668l655.68862353 85.77844277c8.98203604 1.34730527 17.51497031-4.49101758 18.41317295-12.57485009l13.47305449-65.11976016c1.34730527-9.88023955 11.22754482-16.6167668 22.45508965-15.26946153 10.77844307 1.34730527 18.41317383 10.32934131 17.06586855 20.20958086l-13.47305449 65.11976104c-4.49101758 28.29341338-32.78443096 47.15568896-62.87425137 43.56287403l-655.23952089-85.3293419C81.7604791 742.3832334900001 60.65269473 716.33532891 64.69461055 688.94011992l88.92215596-570.35928164c1.34730527-8.98203604 9.88023955-15.26946065 19.31137734-15.26946065 12.12574834 0 21.55688613 9.43113779 19.31137734 20.65868263L103.766467 693.4311375z"  horiz-adv-x="1026" />
      
      <glyph glyph-name="fuzhi" unicode="&#58898;" d="M648.53333333 51.101392590000046c112.74619259 0 204.1325037 91.38631111 204.1325037 204.13250371V630.36681482c0 112.13937778-91.38631111 204.1325037-204.1325037 204.1325037H259.07958518c-112.13937778 0-204.1325037-91.38631111-204.1325037-204.1325037v-375.13291852c0-112.13937778 91.38631111-204.1325037 204.1325037-204.13250371h389.45374815zM106.89042963 255.23389629999997V630.36681482c0 84.2258963 68.08462222 152.31051852 152.31051852 152.31051851h389.45374815c84.2258963 0 152.31051852-68.08462222 152.31051852-152.31051851v-375.13291852c0-84.2258963-68.08462222-152.31051852-152.31051852-152.31051852h-389.57511112c-84.2258963 0-152.18915555 68.08462222-152.18915555 152.31051852zM921.96408889 647.23626667v-438.72711112c0-124.63976297-101.45943703-226.0992-226.0992-226.0992H229.34565925v-51.82198518h466.51922964c153.28142222 0 278.04254815 124.76112592 278.04254814 278.04254815V647.23626667h-51.94334814zM264.29819259 566.28717037h379.01653333c14.32082963 0 25.97167408 11.65084445 25.97167408 25.97167408 0 14.32082963-11.65084445 25.97167408-25.97167408 25.97167407H264.29819259c-14.32082963 0-25.97167408-11.65084445-25.97167407-25.97167407 0-14.44219259 11.65084445-25.97167408 25.97167407-25.97167408zM264.29819259 417.25345185h379.01653333c14.32082963 0 25.97167408 11.65084445 25.97167408 25.97167407 0 14.32082963-11.65084445 25.97167408-25.97167408 25.97167408H264.29819259c-14.32082963 0-25.97167408-11.65084445-25.97167407-25.97167408 0-14.44219259 11.65084445-25.97167408 25.97167407-25.97167407zM643.31472592 268.21973333000005c14.32082963 0 25.97167408 11.65084445 25.97167408 25.97167408 0 14.32082963-11.65084445 25.97167408-25.97167408 25.97167407H264.29819259c-14.32082963 0-25.97167408-11.65084445-25.97167407-25.97167407 0-14.32082963 11.65084445-25.97167408 25.97167407-25.97167408h379.01653333z"  horiz-adv-x="1024" />
      
      <glyph glyph-name="tuichu" unicode="&#59010;" d="M575.69472529 238.17363280999996c-3.21679688 0-5.72607422 0-8.2265625 0-85.96142578 0-171.92021484-0.00878906-257.88339844 0-12.74414063 0.00439453-21.04980469 5.84472656-23.09765625 16.29492188-0.40253906 2.08740234-0.36474609 4.28027344-0.36474609 6.41601562-0.01582031 76.39013672-0.01757813 152.77587891-0.01054688 229.16513672 0.00263672 14.48876953 7.84863281 22.19677734 22.56328125 22.19677735 86.34990234 0.00439453 172.70244141 0.00439453 259.05673829 0.00439453 2.32470703 0 4.66699219 0 7.96289062 0 0 2.47851563 0 4.71269531 0 6.95390625 0 67.98515625-0.00878906 135.97558594 0.00878906 203.96689453 0 9.35595703 4.46044922 16.81787109 12.01464844 19.67607422 8.69238281 3.29150391 16.40478516 1.77539063 22.95703125-5.14775391 3.75732422-3.97001953 7.84863281-7.621875 11.70703125-11.48291016 48.67822266-48.57275391 97.34765625-97.16748047 146.01269531-145.74023437 62.5078125-62.37158203 125.02001953-124.72734375 187.52783203-187.09628906 10.40625-10.37285156 10.46337891-21.31523437 0.18017579-31.57646485-89.45507813-89.30126953-178.90048828-178.61044922-268.3819336-267.8765625-25.44873047-25.38720703-51.03369141-50.62060547-76.46044922-76.02978515-6.54345703-6.54785156-13.84277344-9.41748047-22.77685547-6.02490235-8.68798828 3.29589844-12.77929688 10.13378906-12.77929687 20.88720703-0.01318359 65.83447266-0.00878906 131.67773438-0.00878906 197.51132813C575.69472529 232.59697266 575.69472529 234.91728516 575.69472529 238.17363280999996zM415.00693232 740.68476563c0-25.85302734 0-51.16552734 0-77.19169922-2.53300781 0-4.81376953 0-7.09277344 0-65.44775391 0-130.89550781 0.00878906-196.34238281-0.00439454-41.47294922-0.00615234-72.01318359-30.60966797-72.0149414-72.16435546-0.00615234-143.79082031 0.25751953-287.57988281-0.17314454-431.35927735-0.11865234-38.04345703 28.82373047-65.45214844 55.58203125-70.45751953 5.91240234-1.09423828 12.02080078-1.59082031 18.03955079-1.6040039 64.86064453-0.11425781 129.72392578-0.0703125 194.58720703-0.0703125 2.30449219 0 4.61162109 0 7.29667968 0 0-25.77392578 0-51.07763672 0-76.75048829-0.92285156-0.18457031-1.99951172-0.59765625-3.07880859-0.59765625-68.96513672 0-137.93730469-0.703125-206.88486328 0.29882813-67.38574219 0.96679688-127.05908203 52.10595703-139.91923828 118.29638672-1.81494141 9.32519531-2.70263672 18.97998047-2.7131836 28.48095703-0.16699219 145.35791016-0.55107422 290.70878906 0.08964844 436.05527344 0.26806641 60.71220703 30.43212891 104.29541016 83.109375 132.61992187 18.58447266 9.99755859 39.11308594 14.5125 60.27275391 14.56523438 68.37626953 0.18457031 136.75341797 0.0703125 205.13144531 0.06591797C412.05204951 740.86669922 413.20517451 740.765625 415.00693232 740.68476563z"  horiz-adv-x="1027" />
      
      <glyph glyph-name="zhuye" unicode="&#58992;" d="M535.6 384.2c95.1 10.5 172.1 87.5 182.6 182.6C732 692 634.4 797.8 512 797.8c-114.6 0-207.5-92.8-207.5-207.4v-0.1c0-122.4 105.9-219.9 231.1-206.1zM512 323.6c-138.5 0-415-79.4-415-237.1v-88.9c0-16.4 13.3-29.6 29.6-29.6h770.7c16.4 0 29.6 13.3 29.6 29.6v88.9C927 244.10000000000002 650.5 323.6 512 323.6z"  horiz-adv-x="1024" />
      
      <glyph glyph-name="shezhi" unicode="&#59285;" d="M951.7 467.2c-0.2 1.8-0.4 3.3-0.7 4.2v0.8l-0.4 2.2c-7.1 34.6-30 56.9-58.5 56.9h-4.7c-48.6 0-88 39.6-88 88 0 11.2 5.2 27.1 7.4 32.7 13.8 32.2-0.9 68.9-35 87.6L664.5 800.3l-2 0.7c-8 2.6-17.3 5.7-27.7 5.7-19.4 0-41.2-9-54.7-22.5-16.9-16.7-51.2-41.6-71.6-41.6-20.3 0-54.7 24.8-71.6 41.6-14.4 14.2-34.3 22.5-54.7 22.5-10.7 0-19.7-3-27.7-5.7l-1.8-0.7-112.5-60.9-0.7-0.4c-27.3-17.1-38.4-56.3-24.5-87.4l0.2-0.4 0.2-0.4c2.2-4.9 9-21.5 9-36 0-48.6-39.6-88-88-88h-4.7c-29.8 0-52.1-22-58.5-57.3l-0.4-2v-0.7c0-1-0.4-2.4-0.7-4.2-2.5-15.1-8.5-50.7-8.5-79.8 0-29.1 5.9-64.7 8.5-79.8 0.2-1.8 0.4-3.3 0.7-4.2v-0.8l0.4-2.2c7.1-34.6 30-56.9 58.5-56.9h2.4c48.6 0 88-39.6 88-88 0-11.2-5.2-27.1-7.4-32.7-13.3-30.3-0.7-69.2 28.7-88.8l0.8-0.4 106-59 2-0.7c8-2.6 17.1-5.7 27.5-5.7 22.2 0 42.2 8.5 54.7 22.5 1.2 0.9 2.4 2.1 3.8 3.3 12.8 11.2 47.2 40.8 69.9 40.8 16.9 0 45.2-17.7 73.7-46.2 14.4-14.2 34.3-22.5 54.7-22.5 13.8 0 24 3.8 35.6 9.5l0.4 0.2 108.7 60.1 0.4 0.4c27.3 17.1 38.4 56.3 24.5 87.4l-0.2 0.4-0.2 0.4c-0.2 0.1-8.7 17.8-7.1 33.7l0.2 1v1c0 48.6 39.6 88 88 88h5c29.8 0 52.1 22 58.5 57.3l0.4 2v0.7c0.2 0.8 0.4 2 0.7 3.6 2.6 14.7 8.6 49 8.6 80.4 0.2 29-5.7 64.5-8.3 79.6z m-440-222.4c-76.9 0-139.2 62.3-139.2 139.2s62.3 139.2 139.2 139.2S650.9 460.9 650.9 384s-62.3-139.2-139.2-139.2z"  horiz-adv-x="1024" />
      
      <glyph glyph-name="xiazaibi" unicode="&#58993;" d="M214.016 510.464c5.248-7.68 11.264-15.104 18.048-22.272 25.984-27.52 62.72-50.816 106.624-67.968 14.976-5.888 30.848-10.88 47.488-15.36 29.568-7.552 61.568-12.544 94.848-14.464 10.112-0.64 20.48-0.896 30.976-0.896 10.496 0 20.864 0.256 30.976 0.896 33.28 1.92 65.28 6.912 94.848 14.464 16.64 4.352 32.512 9.472 47.488 15.36 43.904 17.024 80.512 40.448 106.624 67.968 6.784 7.04 12.8 14.592 18.048 22.272 5.504 8.064 10.24 16.384 13.952 24.96 7.04 16 10.88 32.896 10.88 50.432 0 108.416-144.512 196.352-322.688 196.352-178.176 0-322.688-87.936-322.688-196.352 0-17.408 3.712-34.304 10.88-50.432 3.456-8.576 8.192-16.896 13.696-24.96zM512 138.11199999999997c-130.816 0-244.096 42.112-311.808 107.392-7.04-16.128-10.88-33.024-10.88-50.56 0-108.416 144.512-196.352 322.688-196.352 178.176 0 322.688 87.808 322.688 196.352 0 17.408-3.712 34.304-10.88 50.56-67.712-65.28-180.992-107.392-311.808-107.392zM754.176 390.528c-9.856-5.376-20.224-10.496-30.976-15.232-12.16-5.376-24.832-10.24-37.888-14.592-51.712-17.408-110.464-27.136-173.312-27.136-62.848 0-121.6 9.728-173.312 27.136-13.056 4.352-25.728 9.088-37.888 14.592-10.752 4.608-21.12 9.856-30.976 15.232-26.624 14.592-50.176 31.488-69.76 50.56a125.4144 125.4144 0 0 1-10.752-50.56c0-17.408 3.712-34.304 10.88-50.56 3.584-8.576 8.448-16.896 13.952-24.96 5.248-7.68 11.264-15.104 18.048-22.272 55.68-59.008 160.128-98.688 279.936-98.688 119.808 0 224.256 39.68 279.936 98.688 6.784 7.04 12.8 14.592 18.048 22.272 5.504 8.064 10.24 16.384 13.952 24.96 7.04 16.128 10.88 33.024 10.88 50.56 0 17.408-3.712 34.304-10.752 50.56-19.84-19.072-43.392-35.968-70.016-50.56z"  horiz-adv-x="1024" />
      
      <glyph glyph-name="nav_dashuju" unicode="&#58933;" d="M163.25 631.5c-55.8225 0-101.25 45.4275-101.25 101.25s45.4275 101.25 101.25 101.25 101.25-45.4275 101.25-101.25-45.4275-101.25-101.25-101.25zM163.25 789C132.23375 789 107 763.76625 107 732.75s25.23375-56.25 56.25-56.25 56.25 25.23375 56.25 56.25-25.23375 56.25-56.25 56.25zM860.75 496.5c-55.83375 0-101.25 45.4275-101.25 101.25s45.41625 101.25 101.25 101.25 101.25-45.4275 101.25-101.25-45.41625-101.25-101.25-101.25z m0 157.5c-31.01625 0-56.25-25.23375-56.25-56.25s25.23375-56.25 56.25-56.25 56.25 25.23375 56.25 56.25-25.23375 56.25-56.25 56.25zM860.75-66c-55.83375 0-101.25 45.41625-101.25 101.25s45.41625 101.25 101.25 101.25 101.25-45.41625 101.25-101.25-45.41625-101.25-101.25-101.25z m0 157.5c-31.01625 0-56.25-25.23375-56.25-56.25s25.23375-56.25 56.25-56.25 56.25 25.23375 56.25 56.25-25.23375 56.25-56.25 56.25zM512 142.125c-55.8225 0-101.25 45.41625-101.25 101.25s45.4275 101.25 101.25 101.25c55.83375 0 101.25-45.41625 101.25-101.25s-45.41625-101.25-101.25-101.25z m0 157.5c-31.01625 0-56.25-25.23375-56.25-56.25s25.23375-56.25 56.25-56.25 56.25 25.23375 56.25 56.25-25.23375 56.25-56.25 56.25zM512 423.375c-55.8225 0-101.25 45.4275-101.25 101.25s45.4275 101.25 101.25 101.25c55.83375 0 101.25-45.4275 101.25-101.25s-45.41625-101.25-101.25-101.25z m0 157.5c-31.01625 0-56.25-25.23375-56.25-56.25s25.23375-56.25 56.25-56.25 56.25 25.23375 56.25 56.25-25.23375 56.25-56.25 56.25zM163.25 69c-55.8225 0-101.25 45.41625-101.25 101.25s45.4275 101.25 101.25 101.25 101.25-45.41625 101.25-101.25-45.4275-101.25-101.25-101.25z m0 157.5c-31.01625 0-56.25-25.23375-56.25-56.25s25.23375-56.25 56.25-56.25 56.25 25.23375 56.25 56.25-25.23375 56.25-56.25 56.25zM464.0975 283.3125a22.46625 22.46625 0 0 0-18.405 9.52875L190.19375 655.45125a22.5 22.5 0 0 0 36.79875 25.90875l255.47625-362.57625a22.5 22.5 0 0 0-18.37125-35.47125zM569.47625 274.5375a22.5 22.5 0 0 0-16.16625 38.14875l236.48625 244.2375a22.5 22.5 0 1 0 32.32125-31.2975l-236.475-244.24875a22.46625 22.46625 0 0 0-16.16625-6.84zM218.0375 204.22500000000002a22.5 22.5 0 0 0-16.16625 38.14875l236.475 244.2375a22.5 22.5 0 0 0 32.3325-31.2975l-236.475-244.24875a22.46625 22.46625 0 0 0-16.16625-6.84zM815.44625 77.10000000000002a22.4325 22.4325 0 0 0-18.41625 9.55125l-255.4875 362.57625a22.5 22.5 0 1 0 36.75375 25.9425l255.51-362.61a22.4775 22.4775 0 0 0-18.36-35.46z"  horiz-adv-x="1024" />
      
      <glyph glyph-name="upload" unicode="&#58896;" d="M483.2 342.4l-51.2-38.4c-6.4-6.4-25.6-6.4-32 6.4-12.8 12.8-6.4 25.6 6.4 32l96 70.4c6.4 6.4 19.2 6.4 32 0l96-70.4c0-6.4 6.4-19.2-6.4-32-6.4-6.4-12.8-12.8-19.2-12.8-6.4 0-12.8 0-12.8 6.4l-57.6 39.872v-298.816c0-14.528-6.4-29.056-25.6-29.056-12.8 0-25.6 14.528-25.6 29.056v297.344zM278.4 86.4h-19.2c-115.2 0-204.8 102.4-204.8 224 0 128 96 230.4 211.2 224 38.4 128 147.2 217.6 268.8 217.6 134.4 0 249.6-102.4 281.6-249.6 89.6-19.2 153.6-102.4 153.6-204.8 0-115.2-83.2-211.2-185.6-211.2-32 0-96 0-166.4 57.6-12.8 12.8-12.8 32 0 38.4 12.8 12.8 25.6 12.8 38.4 0 51.2-51.2 96-44.8 121.6-44.8h6.4c76.8 0 134.4 70.4 134.4 160 0 83.2-57.6 153.6-128 160-12.8 0-19.2 12.8-25.6 19.2-19.2 128-115.2 224-230.4 224-102.4 0-198.4-83.2-224-198.4 0-12.8-12.8-19.2-32-19.2h-25.6c-83.2 0-147.2-76.8-147.2-172.8s64-172.8 147.2-172.8h12.8c25.6 0 57.6 0 102.4 44.8 12.8 12.8 25.6 12.8 38.4 0 12.8-12.8 12.8-25.6 0-38.4-51.2-51.2-96-57.6-128-57.6z"  horiz-adv-x="1024" />
      
      <glyph glyph-name="zan" unicode="&#58883;" d="M960.74621299 474.92807578a125.90244932 125.90244932 0 0 1-97.62022617 45.27483487h-217.79057901a380.09329805 380.09329805 0 0 1 22.55012666 99.94798125 231.55343086 231.55343086 0 0 1-24.09226436 133.84591347 159.71309121 159.71309121 0 0 1-121.91616914 78.56173213 84.38111982 84.38111982 0 0 1-63.72229394-13.67556065c-35.06180977-25.51801464-41.52133037-74.08080352-48.97014609-130.29608672a344.74051846 344.74051846 0 0 0-35.41097286-132.39106698c-15.1595042-24.38323418-44.63470283-56.76812578-125.49509297-56.76812578h-84.38111894a100.03527158 100.03527158 0 0 1-101.83928203-97.79480773v-369.73478759A100.03527158 100.03527158 0 0 1 163.83928203-65.98399687999995h614.67281016a128.52117422 128.52117422 0 0 1 77.39785371 25.86717774 119.70480146 119.70480146 0 0 1 43.87818252 66.45740625L984.37292598 373.37976357a115.2529708 115.2529708 0 0 1-23.65581006 101.46102188zM129.9413498 31.839907909999965V401.5746955a33.34509053 33.34509053 0 0 0 33.95612637 32.58857022h71.60756396v-434.91192802H163.83928203a33.34509053 33.34509053 0 0 0-33.95612636 32.58857021z m788.32333389 356.46658418l-84.55570049-347.09736972a55.95341133 55.95341133 0 0 0-55.13869775-41.95778467H303.5045832V438.87697002a182.81605957 182.81605957 0 0 1 128.6666587 83.82827725 390.83006778 390.83006778 0 0 1 44.48921747 157.58901562 504.19173691 504.19173691 0 0 0 10.56218907 61.86008935 45.59490176 45.59490176 0 0 0 12.04613174 24.7033002 18.53474941 18.53474941 0 0 0 12.68626464 1.13478047 91.88812969 91.88812969 0 0 0 72.30589102-45.333029c29.88255498-52.63636026 16.6725457-141.44021455-11.81335693-201.96184483a44.80928438 44.80928438 0 0 1 3.4043414-44.43102421 48.79556455 48.79556455 0 0 1 40.73571299-21.26986172h246.65474092a57.35006455 57.35006455 0 0 0 44.40192714-20.57153468 52.3744875 52.3744875 0 0 0 10.73677061-46.11864638z"  horiz-adv-x="1054" />
      
      <glyph glyph-name="zhuanhuan" unicode="&#58954;" d="M99.119848 467.997912h828.014506a43.350032 43.350032 0 0 1 43.350032 43.350031 43.248882 43.248882 0 0 1-16.451337 33.957525 43.465632 43.465632 0 0 1-9.219107 8.756707L635.50424 771.130234a43.350032 43.350032 0 1 1-49.809186-70.964002l207.270952-145.461032H99.119848a43.350032 43.350032 0 0 1 0-86.707288zM927.134354 294.92291H99.119848a43.350032 43.350032 0 0 1-43.350032-43.350032 43.205532 43.205532 0 0 1 16.451337-33.9503c2.564877-3.272927 5.635504-6.242405 9.219107-8.756706l309.309701-217.075284a43.313907 43.313907 0 0 1 60.386594 10.584632 43.350032 43.350032 0 0 1-10.577407 60.386595L233.288196 208.222846h693.846158a43.350032 43.350032 0 0 1 0 86.700064z"  horiz-adv-x="1024" />
      
      <glyph glyph-name="jiankang" unicode="&#58904;" d="M705.17304688 833.99384766H352.11289063C210.51318359 833.99384766 95.31054687 718.79208984 95.31054687 577.1915039099999v-87.52060547c0-13.86035156 11.23417969-25.09628906 25.09628907-25.09628906s25.09628906 11.23681641 25.09628906 25.09628906v87.52148437c0 113.92382813 92.68505859 206.60888672 206.60976562 206.60888672h353.06015626c113.92382813 0 206.60888672-92.68505859 206.60888671-206.60976562v-353.06279297c0-113.92382813-92.68505859-206.60449219-206.60888671-206.60449219H352.11289063c-113.92382813 0-206.60976562 92.68066406-206.60976563 206.60449219V329.05341797000005h102.06210937a25.09453125 25.09453125 0 0 1 22.86650391 14.75332031l22.865625 50.55117188L387.64355469 164.59335938000004a25.09277344 25.09277344 0 0 1 24.08203125-15.54873047 25.10244141 25.10244141 0 0 1 22.95351562 17.17998046l122.15917969 368.2819336 51.38349609-181.828125c3.05332031-10.80791016 12.91992188-18.27333984 24.15058594-18.27333984h197.42871094c13.86123047 0 25.09541016 11.23417969 25.09541016 25.09628906s-11.23417969 25.09628906-25.09628907 25.09628906H651.36289063l-68.45097657 242.23183594c-2.99970703 10.60751953-12.56835938 18.01757813-23.58720703 18.26367187-10.86679688 0.31904297-20.91445313-6.72275391-24.38525391-17.18701172l-126.58623046-381.61230468-90.72861329 220.95439453a25.08574219 25.08574219 0 0 1-22.77246093 15.55751953c-9.90175781 0.35507812-19.18125-5.62236328-23.30859375-14.74892578l-40.16865235-88.81083985H87.115625C73.25351563 379.24599608999995 62.01757812 368.01269531 62.01757812 354.14970702999995s11.23505859-25.09628906 25.09716797-25.09628906H95.31054687v-104.92470703c0-141.59882812 115.20263672-256.79707031 256.80234376-256.79707032h353.06015625c141.60322266 0 256.80146484 115.19824219 256.80146484 256.79707032V577.1915039099999c0 141.60058594-115.19824219 256.80234375-256.80146484 256.80234375z"  horiz-adv-x="1024" />
      
      <glyph glyph-name="nav_alert" unicode="&#58881;" d="M938.633323 325.78411000000006L554.672082 153.19942700000001c-36.761735-15.990183-51.399706-15.990183-85.329837 0L85.366677 325.78411000000006c-20.383048 10.82658-25.879451 50.886971-25.879451 72.745814 25.630777-14.637372 61.674122-30.959106 60.334559-30.131251l392.178726-180.787506 392.19203 180.787506c0.662106 0.165776 35.628888 17.786085 60.320232 30.131251C964.512773 376.16045099999997 957.57959 334.62240599999996 938.633323 325.78411000000006zM938.633323 506.586966L554.672082 333.98795600000005c-36.761735-15.991206-51.399706-15.991206-85.329837 0L85.366677 506.586966c-30.160116 16.004509-29.221706 66.407456 0 85.229127L469.342245 794.546354c33.930131 16.943904 55.155394 17.882276 85.329837 0l383.961241-202.730261C967.854005 575.811584 966.887964 519.774313 938.633323 506.586966zM511.999488 760.134613L119.820762 549.2015289999999l392.178726-165.252695L904.192541 549.2015289999999 511.999488 760.134613zM511.999488 760.134613M511.999488 6.797055999999998l392.19203 180.815135c0.662106 0.165776 35.628888 17.786085 60.320232 30.130228 0-22.369473-6.93216-63.907519-25.879451-72.745814L554.672082-27.615709000000038c-36.761735-15.990183-51.399706-15.990183-85.329837 0L85.366677 144.99762799999996c-20.383048 10.82658-25.879451 50.872644-25.879451 72.745814 25.630777-14.637372 61.674122-30.959106 60.334559-30.130228L511.999488 6.797055999999998z"  horiz-adv-x="1024" />
      
      <glyph glyph-name="nav_qita" unicode="&#58986;" d="M709.0325 432.6c-17.514 10.1295-39.096 10.1295-56.6055 0s-28.3005-28.8495-28.3005-49.1085 10.7865-38.979 28.3005-49.104c17.514-10.1295 39.096-10.1295 56.6055 0 17.5185 10.125 28.3005 28.845 28.3005 49.104S726.551 422.4705 709.0325 432.6zM938.9015 519.6075000000001c-9.6075 30.24-22.14 59.2155-37.953 86.715-10.692 18.594-35.4645 20.1555-47.4975 2.988-7.524-10.7235-6.327-21.6315-0.1755-32.8365 52.3935-95.409 65.1195-196.047 35.271-300.654-60.408-211.743-280.089-331.4835-490.7925-268.794-154.3905 45.927-266.6025 185.472-278.5095 346.6125-4.869 65.898 6.0705 129.1185 32.4225 189.7695 72.5535 166.9725 257.715 263.3085 435.735 226.5975 40.9275-8.4375 79.6455-22.6755 116.0145-43.29 6.228-3.5235 12.663-5.8815 19.9395-4.7565 12.2265 1.8945 21.7395 10.8135 23.931 22.3515 2.4075 12.6495-3.2535 24.147-15.579 30.987C630.8585 831.3315 523.8305 847.671 411.371 822.5025 207.3635 776.8455 62.0495 593.898 62 384.306c-0.0045-33.5295 3.5325-66.6855 10.917-99.3735 57.1365-252.9675 315.9855-405.5535 564.3-332.712 175.455 51.471 302.202 204.3585 320.6205 387.342C964.0025 400.7985 957.554 460.8915 938.9015 519.6075000000001zM482.669 432.6c-17.514-10.1295-28.305-28.8495-28.305-49.1085 0-31.3155 25.344-56.7045 56.6055-56.7045s56.6055 25.389 56.6055 56.7045c0 20.259-10.7865 38.979-28.305 49.1085C521.7605 442.7295 500.183 442.7295 482.669 432.6zM313.0235 432.6c-17.514-10.1295-28.305-28.8495-28.305-49.1085s10.7865-38.979 28.305-49.104c17.514-10.1295 39.0915-10.1295 56.6055 0 17.514 10.125 28.3005 28.845 28.3005 49.104s-10.7865 38.979-28.3005 49.1085C352.115 442.7295 330.533 442.7295 313.0235 432.6z"  horiz-adv-x="1024" />
      
      <glyph glyph-name="nav_caidan" unicode="&#58959;" d="M344 822H212C140 822 68 774 68 702v-132C68 498 140 426 212 426h132c132 0 120 6 120 144V702c6 72-42 120-120 120z m78-234c0-108 12-114-90-114H230c-54 0-114 60-114 114V690c0 54 60 90 114 90H332c54 0 90-36 90-90v-102M344 342H212c-72 0-144-48-144-120V84c0-72 72-144 144-144h132c72 0 120 72 120 144v132c6 132 12 126-120 126z m78-240c0-54-36-114-90-114H230c-54 0-114 60-114 114V204c0 54 60 90 114 90H332c102 0 90 6 90-90v-102m408 720h-132c-72 0-144-48-144-120v-132c0-132 12-144 144-144h132c72 0 120 72 120 144V702c0 72-48 120-120 120z m78-234c0-54-36-114-90-114h-102c-102 0-114 12-114 114V690c0 54 60 90 114 90h102c54 0 90-36 90-90v-102m-78-246h-132c-132 0-144 12-144-120V84c0-72 72-144 144-144h132c72 0 120 72 120 144v132c0 78-48 126-120 126z m78-240c0-54-36-114-90-114h-102c-54 0-114 60-114 114V204c0 102 12 90 114 90h102c54 0 90-36 90-90v-102"  horiz-adv-x="1024" />
      
      <glyph glyph-name="nav_jsgame" unicode="&#58903;" d="M455.75 496.5L399.5 496.5l0-56.25L343.25 440.25 343.25 496.5 287 496.5 287 552.75l56.25 0L343.25 609l56.25 0 0-56.25 56.25 0L455.75 496.5zM589.23125 355.98749999999995l245.75625-251.71875c13.6125-20.86875-5.68125-37.40625-14.23125-47.025C740.15-18.975000000000023 631.7-66 512-66c-248.5125 0-450 201.4875-450 450 0 248.5125 201.4875 450 450 450 132.69375 0 267.1875-72.05625 334.0125-149.23125l-0.45-0.45c3.31875-1.29375 22.33125-33.13125 2.86875-53.15625L589.23125 355.98749999999995zM512 354.13125l282.9375 302.4C723.3875 730.89375 623.375 777.75 512 777.75 294.5375 777.75 118.25 601.4625 118.25 384s176.2875-393.75 393.75-393.75c99.45 0 189.9 37.2375 259.14375 98.04375L512 354.13125zM870.59375 276.16875000000005c46.63125 0 84.375 37.8 84.375 84.375s-37.74375 84.375-84.375 84.375-84.375-37.8-84.375-84.375S823.9625 276.16875000000005 870.59375 276.16875000000005z"  horiz-adv-x="1024" />
      
      <glyph glyph-name="nav_css3" unicode="&#59630;" d="M709.352 162.20399999999995l-197.216-56.25-196.916 56.496L301.728 318l96.506 0 6.866-79.126 107.172-30.326 0.264-0.546 0.068 0 106.934 29.704L630.762 366 406 366l-8 100 241.292 0 8.792 102L280 568l-8 98 481.16 0L709.352 162.20399999999995zM128 832l69.872-806.602L511.538-64l314.49 89.41L896 832 128 832zM766.082 74.98000000000002l-254.524-72.374-253.734 72.338L197.792 768 826.2 768 766.082 74.98000000000002z"  horiz-adv-x="1024" />
      
      <glyph glyph-name="nav_canvas" unicode="&#59464;" d="M416 0L192 0c-35.392 0-64 28.608-64 64L128 640c0 35.392 28.608 64 64 64l320 0 0-224C512 462.336 526.336 448 544 448L768 448l0-32C768 398.336 782.336 384 800 384S832 398.336 832 416l0 64c0 9.088-3.84 17.152-9.856 22.976-0.832 1.024-257.28 256.768-258.752 257.792C558.656 764.992 551.168 768 543.488 768L192 768C121.344 768 64 710.656 64 640l0-576c0-70.656 57.344-128 128-128l224 0C433.664-64 448-49.66399999999999 448-32S433.664 0 416 0zM576 656.896L720.96 512 576 512 576 656.896zM512 288C512 270.336 526.336 256 544 256l384 0c17.664 0 32 14.336 32 32S945.664 320 928 320l-384 0C526.336 320 512 305.664 512 288zM896 192L576 192c-35.392 0-64-28.608-64-64l0-128c0-35.392 28.608-64 64-64l320 0c35.392 0 64 28.608 64 64l0 128C960 163.39200000000005 931.392 192 896 192z"  horiz-adv-x="1024" />
      
      <glyph glyph-name="nav_loading" unicode="&#59166;" d="M818.95009053 357.92794055c0-17.02548707 7.00672797-33.94502201 19.05019562-45.98849081 12.03648171-12.03764679 28.95718173-19.05019563 45.98616176-19.05019563 17.02315805 0 33.95084402 7.01254883 45.9861618 19.05019563 12.04346766 12.04346766 19.05019563 28.96300373 19.05019562 45.98849081 0 17.02897891-7.00672797 33.94851498-19.05019562 45.99198265-12.03648171 12.03764679-28.96300373 19.05019563-45.9861618 19.05019563-17.02897891 0-33.95084402-7.01254883-45.98616176-19.05019563C825.95681847 391.87762063 818.95009053 374.95692061 818.95009053 357.92794055L818.95009053 357.92794055zM818.95009053 357.92794055M79.14769977 357.92794055c0-22.33467221 9.19560192-44.52613575 24.98344277-60.31863353 15.79366286-15.79366286 37.99094727-24.98926478 60.32329045-24.98926478s44.53079267 9.19560192 60.32329047 24.98926478c15.79133385 15.79133385 24.98344277 37.98396131 24.98344277 60.31863353 0 22.33350713-9.19094499 44.53079267-24.98344277 60.32212652-15.79366286 15.79366286-37.99094727 24.98460786-60.32329047 24.98460785s-44.53079267-9.19094499-60.32329045-24.98460785C88.34330169 402.45873323 79.14769977 380.26144882000006 79.14769977 357.92794055L79.14769977 357.92794055zM79.14769977 357.92794055M459.18059065-1.8357373100000132c0-17.02897891 7.01254883-33.95084402 19.05019562-45.99198265 12.04346766-12.03764679 28.96300373-19.04437362 45.99198266-19.04437362 17.02548707 0 33.95084402 7.00672797 45.9884908 19.04437362 12.03764679 12.04230371 19.05019563 28.96300373 19.05019563 45.99198265 0 17.02315805-7.01254883 33.95084402-19.05019563 45.98616177-12.03764679 12.04346766-28.96300373 19.05019563-45.9884908 19.05019563-17.02897891 0-33.94851498-7.00672797-45.99198266-19.05019563C466.19313949 32.115106699999956 459.18059065 15.188584679999963 459.18059065-1.8357373100000132L459.18059065-1.8357373100000132zM459.18059065-1.8357373100000132M412.74035427 717.69627648c0-29.18771257 12.01552498-58.19379486 32.65265437-78.83092538 20.63596544-20.63596544 49.64321281-32.65265438 78.82976029-32.65265435 29.18305564 0 58.18913792 12.01668893 78.82626844 32.65265435 20.63712938 20.63712938 32.65265438 49.64437675 32.65265437 78.83092538 0 29.1818917-12.01552498 58.18913792-32.65265437 78.82626845-20.63596544 20.63712938-49.64321281 32.65265438-78.82626844 32.65265436-29.18771257 0-58.19379486-12.01552498-78.82976029-32.65265436C424.75587925 775.8854144 412.74035427 746.87816704 412.74035427 717.69627648L412.74035427 717.69627648zM412.74035427 717.69627648M713.57556622 103.53878585999996c0-17.02897891 7.01138487-33.94851498 19.04903167-45.99198266 12.04346766-12.03764679 28.96300373-19.05019563 45.98849081-19.05019563 17.02897891 0 33.94851498 7.01254883 45.99198266 19.05019563 12.03764679 12.04346766 19.05019563 28.96300373 19.05019563 45.99198266 0 17.02548707-7.01254883 33.94502201-19.05019563 45.98849081-12.04346766 12.03764679-28.96300373 19.05019563-45.99198266 19.05019563-17.02432199 0-33.94502201-7.01254883-45.98849081-19.05019563C720.58695111 137.48380899000006 713.57556622 120.56427293000002 713.57556622 103.53878585999996L713.57556622 103.53878585999996zM713.57556622 103.53878585999996M172.20631097 612.32175218c0-25.55860538 10.52173425-50.95886622 28.59159324-69.02756125 18.07451591-18.06985899 43.47361279-28.5904293 69.03221817-28.5904293 25.55860538 0 50.95886622 10.51940637 69.02756125 28.5904293 18.06985899 18.06869504 28.5904293 43.46895587 28.5904293 69.02756125 0 25.55744028-10.51940637 50.95770111-28.5904293 69.03221817-18.06869504 18.06985899-43.46895587 28.59159326-69.02756125 28.59159324-25.55744028 0-50.95770111-10.52173425-69.03221817-28.59159324C182.72688014 663.27945442 172.20631097 637.87919359 172.20631097 612.32175218L172.20631097 612.32175218zM172.20631097 612.32175218M204.78677902 103.53878585999996c0-17.02897891 7.01254883-33.94851498 19.05019563-45.99198266 12.04346766-12.03764679 28.96300373-19.05019563 45.99198265-19.05019563 17.02548707 0 33.95084402 7.01254883 45.98849081 19.05019563 12.04230371 12.04346766 19.04903168 28.96300373 19.04903169 45.99198266 0 17.02548707-7.00672797 33.94502201-19.04903169 45.98849081-12.03764679 12.03764679-28.96300373 19.05019563-45.98849081 19.05019563-17.02897891 0-33.94851498-7.01254883-45.99198265-19.05019563C211.79932786 137.48380899000006 204.78677902 120.56427293000002 204.78677902 103.53878585999996L204.78677902 103.53878585999996zM204.78677902 103.53878585999996M713.57556622 612.32175218c0-17.030144 7.01138487-33.95084402 19.04903167-45.98849081 12.04346766-12.04230371 28.96300373-19.04903168 45.98849081-19.04903167 17.02897891 0 33.94851498 7.00672797 45.99198266 19.04903167 12.03764679 12.03764679 19.05019563 28.95718173 19.05019563 45.98849081 0 17.02897891-7.01254883 33.94851498-19.05019563 45.98616177-12.04346766 12.04346766-28.96300373 19.05019563-45.99198266 19.05019563-17.02432199 0-33.94502201-7.00672797-45.98849081-19.05019563C720.58695111 646.27026831 713.57556622 629.35073223 713.57556622 612.32175218L713.57556622 612.32175218zM713.57556622 612.32175218"  horiz-adv-x="1024" />
      
      <glyph glyph-name="nav_time" unicode="&#59057;" d="M346.639 582.18266667h10.884c16.355 0 22.674 23.698 22.674 40.053v130.721c0 16.355-8.163 34.553-24.487 34.553h-10.884c-16.355 0-23.581-18.198-23.581-34.553v-136.192c0-10.884 9.07-34.582 25.395-34.582zM696.203 582.18266667h10.884c16.355 0 23.581 23.698 23.581 40.053v130.721c0 16.355-6.32 34.553-22.674 34.553h-10.884c-16.355 0-24.487-18.198-24.487-34.553v-136.192c0-10.884 12.668-34.582 23.581-34.582zM851.471 728.55666667h-90.931v-57.871h90.931c32.679 0 59.919-32.124 59.919-64.805v-54.477h-768.146v54.477c0 32.679 27.238 64.805 59.919 64.805h89.117v57.871h-83.675c-65.39 0-121.71-68.198-121.71-128.117v-528.443c0-59.919 56.349-132.681 121.71-132.681h648.309c59.919 0 107.081 67.321 107.081 132.681v528.443c-5.413 59.919-47.133 128.117-112.523 128.117zM908.317 77.40966666999998c0-38.122-18.695-79.989-56.847-79.989h-642.838c-32.681 0-63.577 41.867-63.577 74.547v424.96h763.29v-419.518zM643.569 728.55666667h-234.379v-57.871h234.379v57.871z"  horiz-adv-x="1024" />
      
      <glyph glyph-name="nav_img" unicode="&#58966;" d="M871.898 730.24833334L149.702 730.24833334c-46.045 0-83.375-37.327-83.375-83.375l0-611.078c0-46.04 37.33-83.37 83.375-83.37l722.186 0c46.05 0 83.38 37.33 83.38 83.37L955.268 646.87433334C955.268 692.91833334 917.938 730.24833334 871.898 730.24833334L871.898 730.24833334 871.898 730.24833334zM149.682 674.69133334l722.236 0c15.35 0 27.79-12.45 27.79-27.792l0-327.194c-44.77 36.747-122.38 86.27-215.479 86.27-85.85 0-170.482-66.522-252.319-130.86-62.712-49.28-127.562-100.26-173.06-100.26-63.822 0-118.447 46.92-136.965 64.83L121.885 646.89933334C121.885 662.24133334 134.335 674.69133334 149.682 674.69133334L149.682 674.69133334 149.682 674.69133334zM871.918 7.985333340000011L149.682 7.985333340000011c-15.347 0-27.797 12.44-27.797 27.79l0 131.87c33.315-23.6 81.482-48.37 136.967-48.37 64.727 0 134.032 54.48 207.399 112.14 74.417 58.49 151.357 118.975 217.977 118.975 119.4 0 214.099-105.105 215.039-106.175l0.44 0.39 0-208.829C899.708 20.425333339999952 887.268 7.985333340000011 871.918 7.985333340000011L871.918 7.985333340000011 871.918 7.985333340000011zM343.839 341.03433334c61.455 0 111.267 49.815 111.267 111.267s-49.812 111.267-111.267 111.267c-61.452 0-111.267-49.815-111.267-111.267S282.387 341.03433334 343.839 341.03433334L343.839 341.03433334 343.839 341.03433334zM344.257 508.01433334c30.595 0 55.395-24.8 55.395-55.4s-24.8-55.395-55.395-55.395c-30.6 0-55.402 24.795-55.402 55.395C288.854 483.20933334 313.662 508.01433334 344.257 508.01433334L344.257 508.01433334 344.257 508.01433334z"  horiz-adv-x="1024" />
      
      <glyph glyph-name="nav_select" unicode="&#58893;" d="M948.90666667 198.31466666999995h-262.144c-10.92266667 0-21.84533333 10.92266667-21.84533334 21.84533333s10.92266667 21.84533333 21.84533334 21.84533333H948.90666667c10.92266667 0 21.84533333-10.92266667 21.84533333-21.84533333s-10.92266667-21.84533333-21.84533333-21.84533333z m0 131.072h-262.144c-10.92266667 0-21.84533333 10.92266667-21.84533334 21.84533333s10.92266667 21.84533333 21.84533334 21.84533333H948.90666667c10.92266667 0 21.84533333-10.92266667 21.84533333-21.84533333s-10.92266667-21.84533333-21.84533333-21.84533333z m-177.49333334 308.56533333c-2.73066667-2.73066667-259.41333333-243.02933333-259.41333333-243.02933333v-415.06133334l-174.76266667 87.38133334v327.68L86.016 629.76c-2.73066667 2.73066667-5.46133333 5.46133333-8.192 5.46133333-16.384 16.384-24.576 38.22933333-24.576 62.80533334 0 49.152 40.96 90.112 90.112 90.112h562.51733333c49.152 0 90.112-40.96 90.112-90.112 0-24.576-10.92266667-46.42133333-24.576-60.07466667zM705.87733333 738.98666667H143.36C121.51466667 738.98666667 102.4 719.8720000000001 102.4 698.0266666699999c0-10.92266667 2.73066667-21.84533333 10.92266667-27.30666667l2.73066666-2.73066667 243.02933334-229.376 16.384-13.65333333 2.73066666-27.30666667-2.73066666-292.18133333 87.38133333-43.69066667V424.96l16.384 13.65333333 245.76 226.64533334 2.73066667 2.73066666c8.192 8.192 10.92266667 16.384 10.92266666 27.30666667 8.192 24.576-10.92266667 43.69066667-32.768 43.69066667z m-19.11466666-628.05333334H948.90666667c10.92266667 0 21.84533333-10.92266667 21.84533333-21.84533333s-10.92266667-21.84533333-21.84533333-21.84533333h-262.144c-10.92266667 0-21.84533333 10.92266667-21.84533334 21.84533333 0 13.65333333 8.192 21.84533333 21.84533334 21.84533333z"  horiz-adv-x="1024" />
      
      <glyph glyph-name="nav_sllider" unicode="&#59265;" d="M198.4 192h537.6c54.4 0 96 41.6 96 96v96c0 19.2 12.8 32 32 32s32-12.8 32-32v-96c0-89.6-70.4-160-160-160h-563.2l118.4-118.4c12.8-12.8 12.8-32 0-44.8-12.8-12.8-32-12.8-44.8 0l-156.8 156.8c-6.4 6.4-9.6 16-9.6 22.4 0 9.6 3.2 16 9.6 22.4l156.8 156.8c12.8 12.8 32 12.8 44.8 0 12.8-12.8 12.8-32 0-44.8l-92.8-86.4z m643.2 416h-617.6c-54.4 0-96-41.6-96-96v-96c0-19.2-12.8-32-32-32s-32 12.8-32 32v96c0 89.6 70.4 160 160 160h595.2l-92.8 92.8c-12.8 12.8-12.8 32 0 44.8 12.8 12.8 32 12.8 44.8 0l156.8-160c6.4-6.4 9.6-16 9.6-22.4 0-9.6-3.2-16-9.6-22.4l-156.8-156.8c-12.8-12.8-32-12.8-44.8 0-12.8 12.8-12.8 32 0 44.8l115.2 115.2z"  horiz-adv-x="1024" />
      
      <glyph glyph-name="nav_charts" unicode="&#60310;" d="M896 0H96a32 32 0 0 0-32 32V672a32 32 0 0 0 64 0v-608h768a32 32 0 1 0 0-64zM247.008 256a32 32 0 0 0-20.992 56.192l200.992 174.24a32 32 0 0 0 42.272-0.288l172.128-153.44 229.088 246.304a32 32 0 0 0 46.88-43.616l-250.432-269.216a31.936 31.936 0 0 0-44.704-2.08l-174.56 155.52-179.744-155.84a31.872 31.872 0 0 0-20.928-7.776z"  horiz-adv-x="1024" />
      
      <glyph glyph-name="nav_form" unicode="&#58888;" d="M288 384h256c17.92 0 32 14.08 32 32s-14.08 32-32 32H288c-17.92 0-32-14.08-32-32s14.08-32 32-32zM768 832H192c-70.4 0-128-57.6-128-128v-576c0-70.4 57.6-128 128-128h576c70.4 0 128 57.6 128 128V704c0 70.4-57.6 128-128 128z m64-704c0-35.2-28.8-64-64-64H192c-35.2 0-64 28.8-64 64V704c0 35.2 28.8 64 64 64h576c35.2 0 64-28.8 64-64v-576zM672 640H288c-17.92 0-32-14.08-32-32s14.08-32 32-32h384c17.92 0 32 14.08 32 32s-14.08 32-32 32z m-64-384H288c-17.92 0-32-14.08-32-32s14.08-32 32-32h320c17.92 0 32 14.08 32 32s-14.08 32-32 32z"  horiz-adv-x="1024" />
      
      <glyph glyph-name="nav_buju" unicode="&#58922;" d="M800.92057292 777.75H236.66276042c-77.08007813 0-139.74609375-62.66601563-139.74609375-139.74609375v-564.2578125c0-77.08007813 62.66601563-139.74609375 139.74609375-139.74609375h564.2578125c77.08007813 0 139.74609375 62.66601563 139.74609375 139.74609375V638.00390625c0 77.08007813-62.66601563 139.74609375-139.74609375 139.74609375z m-564.2578125-56.25h564.2578125c46.0546875 0 83.49609375-37.44140625 83.49609375-83.49609375v-83.40820313H153.16666667V638.00390625c0 46.0546875 37.44140625 83.49609375 83.49609375 83.49609375z m-83.49609375-647.75390625V498.43359375h225v-508.09570313H236.66276042c-46.0546875-0.08789063-83.49609375 37.35351563-83.49609375 83.40820313z m647.75390625-83.49609375H434.41666667V498.43359375h450v-424.59960938c0-46.14257813-37.44140625-83.58398438-83.49609375-83.58398437z"  horiz-adv-x="1024" />
      
      <glyph glyph-name="nav_daima" unicode="&#59147;" d="M666.627 599.1179999999999c-12.496 12.497-12.496 32.758 0 45.255 12.497 12.496 32.758 12.496 45.255 0L949.47 406.785c12.497-12.497 12.497-32.758 0-45.255L711.882 123.94200000000001c-12.497-12.497-32.758-12.497-45.255 0-12.496 12.497-12.496 32.758 0 45.255L875.931 378.5a8 8 0 0 1 0 11.314L666.627 599.1179999999999zM147.167 378.5L356.47 169.197c12.497-12.497 12.497-32.758 0-45.255s-32.758-12.497-45.255 0L73.627 361.53c-12.496 12.497-12.496 32.758 0 45.255l237.588 237.588c12.497 12.496 32.758 12.496 45.255 0 12.497-12.497 12.497-32.758 0-45.255L147.167 389.814a8 8 0 0 1 0-11.314zM580.4 680.802c17.22-3.976 27.957-21.159 23.981-38.379L481.558 110.41700000000003c-3.975-17.22-21.158-27.957-38.378-23.981-17.22 3.975-27.957 21.158-23.982 38.378L542.022 656.8199999999999c3.975 17.22 21.158 27.957 38.378 23.982z"  horiz-adv-x="1024" />
      
      <glyph glyph-name="nav_vue" unicode="&#59465;" d="M769.28 791.765333H613.888L512.554667 622.933333 410.88 791.722667l-112.896 0.042666H35.456L513.28-23.807999999999993 988.501333 791.765333z m-256.213333-646.4L184.405333 706.432h120.490667l208.426667-358.656 206.805333 358.698667h119.893333z"  horiz-adv-x="1024" />
      
      <glyph glyph-name="nav_svg" unicode="&#58906;" d="M699.392 258.048c-5.12-6.144-8.192-14.336-8.192-25.6 0-12.288 3.072-21.504 8.192-27.648s12.288-9.216 21.504-9.216c4.096 0 8.192 1.024 13.312 2.048 4.096 2.048 8.192 4.096 11.264 6.144v13.312h-23.552v17.408h43.008v-40.96c-4.096-4.096-10.24-8.192-18.432-11.264-8.192-3.072-16.384-5.12-24.576-5.12-10.24 0-20.48 2.048-27.648 7.168-8.192 4.096-14.336 11.264-18.432 19.456s-6.144 17.408-6.144 27.648 2.048 20.48 7.168 28.672 11.264 14.336 19.456 19.456c6.144 3.072 14.336 5.12 24.576 5.12 12.288 0 22.528-3.072 29.696-8.192s11.264-12.288 14.336-22.528l-20.48-4.096c-1.024 5.12-4.096 9.216-8.192 12.288s-9.216 4.096-15.36 4.096c-9.216 0-16.384-3.072-21.504-8.192z m-154.624-24.576c-5.12 2.048-12.288 4.096-22.528 7.168s-16.384 5.12-19.456 7.168c-2.048 2.048-3.072 4.096-3.072 6.144 0 2.048 1.024 4.096 3.072 6.144 4.096 3.072 8.192 4.096 14.336 4.096s10.24-1.024 13.312-3.072 5.12-6.144 6.144-11.264l20.48 1.024c0 9.216-4.096 17.408-10.24 22.528s-15.36 8.192-28.672 8.192c-8.192 0-14.336-1.024-20.48-3.072s-10.24-6.144-13.312-10.24-4.096-9.216-4.096-14.336c0-8.192 3.072-14.336 9.216-20.48 5.12-4.096 12.288-7.168 23.552-10.24 8.192-2.048 14.336-3.072 16.384-4.096 3.072-1.024 6.144-2.048 7.168-4.096 1.024-2.048 2.048-4.096 2.048-6.144 0-4.096-2.048-7.168-5.12-10.24-4.096-3.072-8.192-4.096-15.36-4.096-6.144 0-12.288 1.024-15.36 5.12s-6.144 8.192-7.168 15.36l-20.48-2.048c1.024-12.288 5.12-20.48 12.288-26.624s16.384-9.216 29.696-9.216c9.216 0 16.384 2.048 22.528 4.096 6.144 2.048 11.264 6.144 14.336 11.264 3.072 5.12 5.12 10.24 5.12 16.384s-1.024 12.288-4.096 16.384-7.168 8.192-10.24 8.192z m68.608-27.648L587.776 281.6h-22.528l36.864-102.4H624.64l35.84 102.4h-21.504l-25.6-75.776z m334.848 23.552c0-59.392-16.384-95.232-20.48-102.4-9.216-22.528-32.768-41.984-56.32-46.08-3.072-1.024-16.384-4.096-36.864-7.168 0-6.144-1.024-14.336-2.048-22.528-1.024-11.264-3.072-25.6-4.096-40.96-3.072-32.768-28.672-59.392-60.416-63.488C665.6-68.60799999999995 564.224-76.79999999999995 465.92-76.79999999999995c-101.376 0-203.776 8.192-304.128 24.576-31.744 6.144-56.32 30.72-60.416 61.44C84.992 134.144 76.8 260.096 76.8 384c0 37.888 0 101.376 13.312 116.736L382.976 829.44c4.096 4.096 9.216 7.168 14.336 7.168 25.6 5.12 48.128 8.192 68.608 8.192 97.28 0 200.704-8.192 303.104-24.576 30.72-4.096 56.32-29.696 60.416-61.44 16.384-124.928 24.576-250.88 24.576-374.784v-2.048c10.24-1.024 16.384-3.072 17.408-3.072 23.552-4.096 47.104-23.552 56.32-46.08 3.072-7.168 20.48-43.008 20.48-103.424zM151.552 507.904H348.16c17.408 0 30.72 13.312 30.72 30.72v225.28l-227.328-256zM791.552 66.55999999999995c-43.008-6.144-102.4-11.264-167.936-11.264-136.192 0-242.688 24.576-246.784 25.6-20.48 4.096-46.08 22.528-57.344 41.984-4.096 7.168-27.648 45.056-27.648 107.52 0 61.44 22.528 99.328 27.648 107.52 11.264 20.48 35.84 37.888 58.368 41.984 9.216 2.048 112.64 24.576 246.784 24.576 75.776 0 144.384-7.168 189.44-14.336 0 120.832-8.192 242.688-24.576 362.496-2.048 14.336-12.288 24.576-25.6 26.624C661.504 795.648 562.176 803.84 465.92 803.84c-13.312 0-28.672-1.024-46.08-4.096v-261.12c0-39.936-31.744-71.68-71.68-71.68H122.88c-3.072-26.624-5.12-54.272-5.12-82.944 0-122.88 8.192-246.784 24.576-368.64 2.048-13.312 12.288-24.576 26.624-26.624 98.304-16.384 198.656-24.576 296.96-24.576 96.256 0 195.584 8.192 294.912 23.552 13.312 2.048 24.576 13.312 25.6 26.624 1.024 16.384 3.072 29.696 4.096 41.984 2.048 4.096 2.048 8.192 1.024 10.24z m117.76 164.864c0 54.272-16.384 83.968-16.384 83.968 0 1.024-1.024 2.048-1.024 3.072-3.072 9.216-16.384 19.456-26.624 21.504-2.048 1.024-106.496 24.576-238.592 24.576-133.12 0-237.568-23.552-238.592-23.552h-1.024c-11.264-2.048-25.6-12.288-30.72-22.528 0-1.024-1.024-1.024-1.024-2.048s-20.48-31.744-20.48-84.992c0-54.272 20.48-84.992 20.48-84.992l1.024-1.024c5.12-9.216 20.48-20.48 30.72-22.528 2.048-1.024 106.496-24.576 238.592-24.576s236.544 23.552 237.568 23.552h1.024c9.216 2.048 22.528 13.312 26.624 22.528 0 0 1.024 1.024 1.024 2.048 0 0 17.408 30.72 17.408 84.992z"  horiz-adv-x="1024" />
      
      <glyph glyph-name="nav_qiye" unicode="&#58937;" d="M929.792 377.34400000000005l-309.248 221.184V766.4639999999999c0 37.888-18.944 73.216-50.176 94.72-31.232 21.504-71.168 25.6-106.496 11.264l-343.04-137.216C75.776 717.312 46.592 674.816 46.592 626.688v-624.64c0-63.488 51.712-115.712 115.712-115.712h700.416c63.488 0 115.712 51.712 115.712 115.712v280.576c0 37.376-17.92 73.216-48.64 94.72zM108.032 2.048000000000002v624.64c0 23.04 13.824 43.008 34.816 51.712l343.04 137.216c6.656 2.56 13.312 4.096 19.968 4.096 10.24 0 20.48-3.072 29.184-9.216 14.848-9.728 23.04-26.112 23.04-43.52v-818.688H363.52v275.968c0 16.896-13.824 30.72-30.72 30.72s-30.72-13.824-30.72-30.72v-275.968H162.304c-29.696-0.512-54.272 24.064-54.272 53.76z m808.96 0c0-29.696-24.064-54.272-54.272-54.272h-242.688V523.264l273.92-195.584c14.336-10.24 23.04-27.136 23.04-45.056v-280.576z"  horiz-adv-x="1024" />
      
      <glyph glyph-name="nav_shangcheng" unicode="&#58943;" d="M352.53359 66.07718399999999c-35.238572 0-63.782675-28.54615-63.782675-63.786769 0-35.237549 28.545126-63.781652 63.782675-63.781652 35.240619 0 63.781652 28.545126 63.781652 63.781652C416.315242 37.53205700000001 387.775232 66.07718399999999 352.53359 66.07718399999999L352.53359 66.07718399999999 352.53359 66.07718399999999zM799.016411 66.07718399999999c-35.240619 0-63.787792-28.54615-63.787792-63.786769 0-35.237549 28.54615-63.781652 63.787792-63.781652 35.235502 0 63.781652 28.545126 63.781652 63.781652C862.798063 37.53205700000001 834.251913 66.07718399999999 799.016411 66.07718399999999L799.016411 66.07718399999999 799.016411 66.07718399999999zM862.28641 97.96545100000003L344.276533 97.96545100000003c-45.957705 0-86.36295 36.354999-91.976808 82.759889l-54.087872 380.784516L167.436942 739.464851c-1.913583 15.526625-16.074094 28.223808-29.913287 28.223808l-40.627303 0c-17.607006 0-31.894408 14.287401-31.894408 31.887244 0 17.605983 14.287401 31.894408 31.894408 31.894408l40.627303 0c46.530756 0 87.383186-36.356023 93.028766-82.760912l30.710442-177.281659 54.313-382.409526c1.784646-14.799054 15.176654-27.270087 28.700669-27.270087l518.010901 0c17.635659 0 31.893384-14.253632 31.893384-31.888268C894.179794 112.22317699999996 879.923092 97.96545100000003 862.28641 97.96545100000003L862.28641 97.96545100000003zM384.140449 225.53387199999997c-16.549931 0-30.550807 12.754488-31.766494 29.562293-1.304715 17.572214 11.895935 32.848129 29.435403 34.122145l432.643628 31.895431c15.878642 0.092098 29.27372 12.564154 31.026644 26.754341l50.228985 287.404756c1.27504 10.715039-1.687432 22.452361-8.096399 29.722952-4.116761 4.656043-9.28548 7.016811-15.309684 7.016811L320.133669 672.012599c-17.605983 0-31.893384 14.287401-31.893384 31.894408 0 17.599843 14.287401 31.887244 31.893384 31.887244l552.167838 0c24.364921 0 46.749744-10.107195 63.046918-28.511357 18.627243-21.017686 27.172873-50.6424 23.440875-81.352843l-50.258661-287.439548c-5.421476-44.712341-45.797046-81.068364-91.753727-81.068364l-430.278767-31.795147C385.702014 225.56354799999997 384.903835 225.53387199999997 384.140449 225.53387199999997L384.140449 225.53387199999997zM384.140449 225.53387199999997"  horiz-adv-x="1024" />
      
      <glyph glyph-name="nav_houtai" unicode="&#59087;" d="M812 744L212 744C145.76 744 92 690.24 92 624l0-360c0-66.24 53.76-120 120-120l600 0c66.24 0 120 53.76 120 120L932 624C932 690.24 878.24 744 812 744zM872 264c0-33.12-26.82-60-60-60L212 204c-33.18 0-60 26.88-60 60L152 624c0 33.18 26.82 60 60 60l600 0c33.18 0 60-26.82 60-60L872 264zM722 24l-420 0C285.44 24 272 10.559999999999945 272-6S285.44-36 302-36l420 0c16.56 0 30 13.44 30 30S738.56 24 722 24z"  horiz-adv-x="1024" />
      
      <glyph glyph-name="nav_canyin" unicode="&#58948;" d="M991.46179627 322.45536319999997c0 49.417776-26.39638827 89.32289707-62.25740374 97.77240427 15.82167787 20.2871136 24.48403307 46.2196032 24.48403307 73.83740906 0 73.25235093-47.4945056 153.14664107-127.05042347 213.71981867-85.38903573 65.01678293-196.07529173 100.82322133-311.66686826 100.82322133-115.59157653 0-226.27783253-35.80643947-311.66686827-100.82322133C123.74944213 647.21181867 76.25384427 567.31752853 76.25384427 494.0651776c0-26.0416416 9.1011488-52.4762336 25.89756053-73.51759147-36.57923947-7.7214592-63.66983893-48.02607893-63.66983893-98.09222186 0-38.884544 0.04693547-100.17703787 48.20399786-116.9199648 2.38935147-8.8326336 5.99466453-17.38583573 11.6454976-25.00796587-0.92779733-2.42428053-1.99094507-5.04503573-1.99094506-7.7956832l0-89.61542613c0-66.28731947 54.99656853-119.6586048 121.283888-119.6586048L812.14253013-36.542281600000024c66.28731947 0 119.21435307 53.37237653 119.21435307 119.6586048l0 89.61542613c0 1.485568 0.34928853 2.93511467 0.06767467 4.33772694 5.92808107 7.91138453 10.22978773 17.48734827 12.2654848 28.53468906C991.17145067 222.11023039999998 991.46179627 281.2502336 991.46179627 322.45536319999997zM229.78579413 673.00568427c77.823664 59.2557056 179.10423573 91.88798507 285.186432 91.88798506s207.3616768-32.63227947 285.1853408-91.88798506c68.7639936-52.35725653 109.81740053-118.7078848 109.81740054-178.39801814 0-49.8467456-36.41660267-71.61724373-72.5090208-71.61724373L192.32896747 422.9904224c-35.5695776 0-72.36057387 26.4487808-72.36057387 71.61724373C119.9683936 554.2967072 161.0228928 620.6484266699999 229.78579413 673.00568427zM114.98229973 379.33044907l77.34666774 0 645.1347968 0 77.49620586 0c18.76552533 0 32.78618453-29.99515093 32.78618454-56.3053088 0-66.904032-9.15790827-76.5269312-26.77623894-77.71341974-10.3520384 0.79354027-19.1530176 4.80926613-27.8175552 11.80922667-8.37637547 7.73455787-17.0791168 18.0189216-25.2186304 27.71167787-6.0546976 7.2084416-12.330976 14.6417376-18.962 21.69299946-15.72889813 17.70128747-34.18333867 33.23043627-59.47946773 34.41910827-1.153744 0.06876587-2.31621973 0.10042027-3.49070187 0.10042027-33.4738464 0-57.054096-27.02729067-79.85717866-53.1606208-2.27365013-2.60438293-4.5549408-5.21968-6.843872-7.80332374-16.822608-18.3310976-33.90609067-34.96705493-49.72667734-35.20282453-1.03040107 0.00764053-2.05643627 0.07858987-3.0791968 0.21066453-15.11546027 2.3304096-33.3461376 23.07159787-49.54111786 41.5052992-1.7846464 2.0313312-3.5736576 4.06593707-5.37140267 6.0950848-19.88870613 23.72323947-42.66559253 48.34808-74.51415573 48.34808-0.20084053 0-0.3973152-0.01309867-0.59706454-0.01528106-0.18992533 0.00218347-0.37657707 0.01528107-0.5675936 0.01528106-31.96317333 0-55.9210912-26.0176288-79.09092693-51.17731626-19.81448213-21.51398933-40.2838816-43.73528853-61.2128128-44.9381504-20.6615072 0.618896-39.65188693 21.36445013-59.73270187 43.35216213-12.61477333 13.81217813-25.45876693 27.87213227-39.9433248 38.00259093-11.35405973 8.3316224-23.73633813 13.98027307-37.88143146 14.55114134-1.6558464 0.12552533-3.32806507 0.20957333-5.03193814 0.20957333-36.86849387 0-60.91045973-31.18928107-80.19227733-57.51799467-14.90588693-19.10826453-29.07936-36.91979627-44.77987947-38.49705173-15.3457728 1.0806112-25.84407573 10.2134144-25.84407573 78.0048576C82.1961152 349.33420587 96.2167744 379.33044907 114.98229973 379.33044907zM869.99344 195.95397866999997L157.44377707 195.95397866999997c-9.62289813 0-17.30069653 3.82361813-22.45270294 9.81173226 20.8448832 8.49316907 36.17537493 29.1110144 51.1074592 49.54439254 0.525024 0.718224 1.05114027 1.26726187 1.57725547 1.98657813 0.1266176 0.16372907 0.2576 0.24341013 0.3842176 0.4071392 15.7419968 20.18450987 30.62059627 39.19235413 47.24127147 39.4827008 5.52203307-0.6625568 11.3376864-3.66534613 17.31052053-8.07838827 8.7922464-7.08837333 18.33328107-17.88357227 27.69312213-28.48666133 24.60410133-27.87213227 52.49151467-59.46855253 93.52527467-59.46855253 0.45407467 0 0.8972352 0.0218304 1.3480352 0.02947093 0.45625813-0.00764053 0.90487573-0.0338368 1.36549973-0.0338368 40.7772512 0 68.5707936 31.13797973 93.09193814 58.61061333 16.243008 18.19684053 33.0230464 36.96454827 46.81557653 37.50922027 11.84415573-0.48354667 27.44643627-16.71891307 42.0281408-33.1409312 1.3698656-1.63838187 2.73973227-3.28112853 4.10413973-4.92278507 21.2170944-25.52098347 45.0876896-54.23577387 80.0700256-57.70901226 2.15904-0.22922027 4.3519168-0.35037973 6.58081387-0.35037974 0.0873216 0 0.1713696 0.00654933 0.25978347 0.00654934 0.08950507 0 0.17573547-0.00654933 0.2663328-0.00654934 34.808784 0 60.05033707 24.89881387 82.02713386 49.67865067 2.56399573 2.79430827 5.08760533 5.58861653 7.57628587 8.34362987 16.1360384 17.86610773 34.4245664 38.11829227 47.00986773 38.11829226 0.47481387 0 0.94307947-0.05566827 1.41570987-0.08841386 8.5892224-1.02166933 18.42278613-9.1633664 28.28909547-19.53286827 4.0866752-4.60733333 8.45605653-9.9132448 13.27623786-15.8795296 10.11736-12.5230848 21.4004704-26.4455072 35.1842688-37.80065813 10.12936747-9.1328032 21.1417792-15.89699307 33.42472747-19.6027264C892.6327936 197.11754559999997 883.04373227 195.95397866999997 869.99344 195.95397866999997zM887.69581867 83.11741440000003c0-42.18204587-33.37124267-75.99754027-75.55328854-75.99754027L217.62291307 7.119874129999971c-42.18204587 0-77.62282347 33.8154944-77.62282347 75.99754027l0 68.08397227 17.4436864 0L869.99344 151.20138772999996l17.70237867 0L887.69581867 83.11741440000003zM409.24041067 650.31502933c12.65406827 0 22.9504384 10.29418773 22.9504384 22.9504384s-10.29527893 22.9504384-22.9504384 22.9504384c-12.65515947 0-22.9504384-10.29418773-22.9504384-22.9504384S396.58415893 650.31502933 409.24041067 650.31502933zM293.39559893 527.9145088c12.65406827 0 22.9504384 10.29418773 22.9504384 22.9504384s-10.29527893 22.9504384-22.9504384 22.9504384c-12.65515947 0-22.9504384-10.29418773-22.9504384-22.9504384S280.74043947 527.9145088 293.39559893 527.9145088zM625.62792 650.31502933c12.65406827 0 22.9504384 10.29418773 22.9504384 22.9504384s-10.29527893 22.9504384-22.9504384 22.9504384c-12.65515947 0-22.9504384-10.29418773-22.9504384-22.9504384S612.97166933 650.31502933 625.62792 650.31502933zM517.4336192 527.9145088c12.65406827 0 22.9504384 10.29418773 22.9504384 22.9504384s-10.29527893 22.9504384-22.9504384 22.9504384c-12.65515947 0-22.9504384-10.29418773-22.9504384-22.9504384S504.77845973 527.9145088 517.4336192 527.9145088zM741.47163947 527.9145088c12.65406827 0 22.9504384 10.29418773 22.9504384 22.9504384s-10.29527893 22.9504384-22.9504384 22.9504384c-12.65515947 0-22.9504384-10.29418773-22.9504384-22.9504384S728.81648 527.9145088 741.47163947 527.9145088z"  horiz-adv-x="1024" />
      
      <glyph glyph-name="nav_404" unicode="&#59242;" d="M96.256 259.96799999999996l192 0c17.664 0 32 14.336 32 32s-14.336 32-32 32l-192 0c-17.664 0-32-14.336-32-32S78.592 259.96799999999996 96.256 259.96799999999996zM1015.04-7.423999999999978l-110.208 110.208c34.112 43.52 55.36 97.6 55.36 157.248 0 141.376-114.624 256-256 256s-256-114.624-256-256 114.624-256 256-256c59.648 0 113.728 21.248 157.248 55.36l110.208-110.208c12.032-11.968 31.36-11.968 43.392 0C1027.008-38.78399999999999 1027.008-19.456000000000017 1015.04-7.423999999999978zM841.408 125.952c-0.576-0.512-1.344-0.704-1.856-1.28s-0.768-1.344-1.28-1.856c-34.624-33.792-81.792-54.784-134.08-54.784-106.048 0-192 85.952-192 192s85.952 192 192 192 192-85.952 192-192C896.256 207.74400000000003 875.264 160.57600000000002 841.408 125.952zM96.256 643.968l576 0c17.664 0 32 14.336 32 32s-14.336 32-32 32l-576 0c-17.664 0-32-14.336-32-32S78.592 643.968 96.256 643.968zM352.256 515.9680000000001l-256 0c-17.664 0-32-14.336-32-32s14.336-32 32-32l256 0c17.664 0 32 14.336 32 32S369.92 515.9680000000001 352.256 515.9680000000001zM352.256 131.96799999999996l-256 0c-17.664 0-32-14.336-32-32s14.336-32 32-32l256 0c17.664 0 32 14.336 32 32S369.92 131.96799999999996 352.256 131.96799999999996z"  horiz-adv-x="1025" />
      
      <glyph glyph-name="nav_hunli" unicode="&#59258;" d="M470.4 691.2l44.8-44.8 44.8 44.8c99.2 99.2 262.4 99.2 361.6 0 48-48 73.6-112 73.6-179.2 0-19.2-12.8-32-32-32s-32 12.8-32 32c0 51.2-19.2 99.2-57.6 134.4-73.6 73.6-195.2 73.6-272 0l-67.2-67.2c-12.8-12.8-32-12.8-44.8 0l-67.2 67.2c-73.6 73.6-195.2 73.6-272 0-73.6-73.6-73.6-195.2 0-272l361.6-361.6c12.8-12.8 12.8-32 0-44.8s-32-12.8-44.8 0l-361.6 361.6c-99.2 99.2-99.2 262.4 0 361.6 102.4 102.4 262.4 102.4 364.8 0z m176-710.4l-220.8 220.8c-57.6 57.6-57.6 147.2 0 204.8 57.6 57.6 147.2 57.6 204.8 0l57.6-57.6 57.6 57.6c57.6 57.6 147.2 57.6 204.8 0 57.6-57.6 57.6-147.2 0-204.8l-220.8-220.8c-9.6-9.6-25.6-16-38.4-16-19.2 0-32 6.4-44.8 16z m256 265.6c32 32 32 83.2 0 112-32 32-83.2 32-112 0l-80-80c-12.8-12.8-32-12.8-44.8 0l-80 80c-32 32-83.2 32-112 0-32-32-32-83.2 0-112l214.4-214.4 214.4 214.4z"  horiz-adv-x="1024" />
      
      <glyph glyph-name="nav_chuangyi" unicode="&#58924;" d="M173.90610217 468.3412772v-162.74370796c0-18.08638357 11.9451113-30.13272428 23.89022342-30.13272427s23.8902226 12.04634152 23.8902226 30.13272427V468.3412772c0 18.08638357-11.9451113 30.13272428-23.8902226 30.13272426s-23.8902226-12.04634152-23.89022342-30.13272426zM114.21428827 522.56668369h155.21896252c11.9451113 0 23.8902226 12.08008411 23.89022342 30.1327251 0 18.08638357-5.97255606 30.13272428-23.89022342 30.13272426h-155.21896252c-11.9451113 0-23.85648001-18.08638357-23.85647919-30.13272426s11.91136789-30.13272428 23.85647919-30.1327251z m185.08174117-301.32724604c0 18.05264017-11.9451113 30.09898169-23.89022258 30.09898087H114.21428827c-11.9451113 0-23.85648001-12.04634152-23.85647919-30.09898087 0-18.08638357 11.91136789-30.16646768 23.85647919-30.16646768h155.21896251c17.91766736 0 29.86277866 12.08008411 29.86277866 30.16646768z m119.38362781 301.32724604h316.41048112c11.9451113 0 23.8902226 12.08008411 23.89022259 30.1327251 0 18.08638357-11.9451113 30.13272428-23.8902226 30.13272426H418.67965725c-11.9451113 0-23.85648001-18.08638357-23.85647918-30.13272426s11.91136789-30.13272428 23.85647918-30.1327251z m0-162.70996372h316.41048112c11.9451113 0 23.8902226 12.04634152 23.89022259 30.13272427 0 18.05264017-11.9451113 30.13272428-23.8902226 30.13272428H418.67965725c-11.9451113-6.04004205-23.85648001-18.08638357-23.85647918-36.17276632 0-12.04634152 11.91136789-24.09268223 23.85647918-24.09268223z m0-168.78375h316.41048112c11.9451113 0 23.8902226 12.08008411 23.89022259 30.16646768 0 18.05264017-11.9451113 30.09898169-23.8902226 30.09898087H418.67965725c-11.9451113 0-23.85648001-12.04634152-23.85647918-30.09898087 0-18.08638357 11.91136789-30.16646768 23.85647918-30.16646768z m543.26636884 482.19108096c0 72.31179089-53.71925867 132.57724027-125.38992727 132.57723945H299.29602944c-71.67066861 0-125.38992728-60.26544937-125.38992727-132.57723945v-36.17276714c0-18.08638357 11.9451113-30.13272428 23.89022342-30.1327251s23.8902226 12.04634152 23.8902226 30.1327251V673.2640509299999c0 42.1790658 29.82903525 78.35183294 71.63692602 78.35183212h543.23262461c41.80788996 0 71.67066861-36.17276716 71.67066861-78.35183212v-578.59555407c0-42.2128092-29.86277866-78.35183294-71.67066861-78.35183294H299.29602944c-41.80788996 0-71.67066861 36.13902375-71.6706686 78.35183294v42.17906579c0 18.08638357-11.91136789 30.13272428-23.85648001 30.13272427s-23.85648001-12.04634152-23.85647919-30.13272427v-42.17906579c-6.00629864-72.34553347 47.7129592-132.61098284 119.3836278-132.61098368h543.26636885c71.60318261 0 125.32244046 60.26544937 125.32244046 132.61098368l-5.93881266 578.59555407z"  horiz-adv-x="1065" />
      
      <glyph glyph-name="nav_shouji" unicode="&#59009;" d="M800 672V768a48 48 0 0 1-48 48H272a48 48 0 0 1-48-48v-96h576z m0-48H224v-624a48 48 0 0 1 48-48h480a48 48 0 0 1 48 48V624zM272 864h480a96 96 0 0 0 96-96v-768a96 96 0 0 0-96-96H272a96 96 0 0 0-96 96V768a96 96 0 0 0 96 96z m168-792h144a24 24 0 0 0 0-48h-144a24 24 0 0 0 0 48z"  horiz-adv-x="1024" />
      
      <glyph glyph-name="nav_geren" unicode="&#58908;" d="M512.42335531 352.5870525c-139.19915344 0-252.31963312 113.28982219-252.31963312 252.31963312S373.22420188 857.22631875 512.42335531 857.22631875s252.31963312-113.28982219 252.31963313-252.31963312-113.12047969-252.31963312-252.31963313-252.31963313z m0 447.74034188c-107.70153469 0-195.42070875-87.71917406-195.42070968-195.42070876s87.71917406-195.42070875 195.42070968-195.42070968S707.84406406 497.20515094 707.84406406 604.9066856300001 620.12489 800.32739438 512.42335531 800.32739438zM872.61386469-88.71829219000006H152.232845c-44.53695563 0-80.60680875 36.23919563-80.60680875 80.60680875v54.528135l1.69342031 4.74157782c54.18945094 150.20638594 234.70806094 255.19844812 439.10389875 255.19844718S897.33780219 201.36461438000003 951.52725313 51.15822936999996l1.69342031-4.74157781V-8.111483440000029c0-44.53695563-36.23919563-80.60680875-80.60680875-80.60680875zM128.69430219 36.256129689999966V-8.111483440000029c0-13.03933688 10.66854844-23.70788531 23.70788531-23.70788531h720.21167719c13.03933688 0 23.70788531 10.66854844 23.70788531 23.70788531v44.53695563C848.05926969 162.07726219000006 691.0792025 249.28841062000004 512.42335531 249.28841062000004S176.78744 162.07726219000006 128.69430219 36.256129689999966z"  horiz-adv-x="1024" />
      
      <glyph glyph-name="nav_cishan" unicode="&#58918;" d="M914.962963 202.90370399999995c-73.007407 14.222222-154.548148 55.940741-178.251852 68.266666-49.303704 31.288889-87.22963 46.459259-121.362963 46.45926-34.133333 0-64.474074-16.118519-79.644444-43.614815-9.481481-16.118519-14.222222-35.081481-12.325926-55.940741 0.948148-10.42963 2.844444-20.859259 6.637037-30.340741-60.681481 6.637037-107.140741 18.014815-138.42963 34.133334-35.081481 17.066667-51.2 37.925926-72.059259 64.474074v0.948148c-13.274074 17.066667-28.444444 36.977778-50.251852 56.888889-41.718519 38.874074-77.748148 57.837037-112.82963 57.837037-31.288889 0-58.785185-15.17037-76.8-40.770371-18.962963-27.496296-22.755556-61.62963-22.755555-85.333333 0-25.6 4.740741-51.2 11.377778-66.37037 36.02963-80.592593 91.97037-146.962963 167.822222-197.214815 61.62963-41.718519 122.311111-62.577778 163.081481-73.955556 18.014815-4.740741 44.562963-8.533333 58.785186-9.481481l97.659259-0.948148h347.022222c36.02963 0 64.474074 28.444444 64.474074 63.525926V140.32592599999998c0 30.340741-21.807407 56.888889-52.148148 62.577778z m-4.740741-208.592593H557.511111L456.059259-4.740740999999957c-6.637037 0-28.444444 2.844444-42.666666 6.637037-36.02963 10.42963-91.97037 29.392593-146.962963 66.370371-66.37037 44.562963-116.622222 102.4-147.911111 173.511111-5.688889 12.325926-10.42963 62.577778 3.792592 84.385185 4.740741 6.637037 10.42963 10.42963 18.962963 10.42963 16.118519 0 38.874074-13.274074 66.37037-39.822223 17.066667-16.118519 30.340741-33.185185 43.614815-50.251851 29.392593-32.237037 39.822222-50.251852 91.970371-75.851852 53.096296-26.548148 120.414815-29.392593 229.451851-36.02963h5.688889c14.222222-0.948148 27.496296 6.637037 34.133334 18.962963 6.637037 12.325926 5.688889 27.496296-1.896297 38.874074l-3.792592 4.740741c-5.688889 8.533333-4.740741 6.637037-7.585185 11.377778-4.740741 8.533333-6.637037 23.703704-1.896297 32.237037 3.792593 7.585185 13.274074 8.533333 18.962963 8.533333 13.274074 0 39.822222-6.637037 87.22963-36.977778h0.948148l5.688889-2.844444c27.496296-14.222222 115.674074-57.837037 198.162963-75.851852v-139.377778zM420.977778 839.111111v-56.888889c18.962963 0 37.925926-7.585185 51.2-20.859259 10.42963-10.42963 25.6-17.066667 40.77037-17.066667 15.17037 0 29.392593 5.688889 40.770371 17.066667 13.274074 13.274074 32.237037 20.859259 52.148148 20.859259 29.392593 0 56.888889-16.118519 70.162963-42.666666 13.274074-26.548148 11.377778-56.888889-5.688889-81.540741C623.881481 604.9185190000001 550.874074 533.807407 512 497.777778c-46.459259 43.614815-115.674074 110.933333-156.444444 160.237037-17.066667 23.703704-19.911111 54.992593-6.637037 81.540741 13.274074 26.548148 39.822222 42.666667 70.162962 42.666666l1.896297 56.888889m0 0c-0.948148 0-0.948148 0 0 0h-0.948148C368.82963 839.111111 322.37037 810.666667 298.666667 765.1555559999999c-22.755556-45.511111-18.962963-100.503704 11.377777-141.274075l0.948149-0.948148C374.518519 545.185185 493.985185 436.148148 499.674074 431.407407c3.792593-2.844444 7.585185-4.740741 12.325926-4.74074s8.533333 1.896296 12.325926 4.74074c4.740741 4.740741 125.155556 113.777778 187.733333 190.577778 0 0.948148 0.948148 0.948148 0.948148 1.896296 30.340741 40.77037 34.133333 95.762963 11.377778 141.274075C701.62963 810.666667 655.17037 839.111111 603.97037 839.111111h-0.948148c-34.133333 0-66.37037-13.274074-91.022222-37.925926-23.703704 24.651852-56.888889 37.925926-91.022222 37.925926z"  horiz-adv-x="1024" />
      
      <glyph glyph-name="shangchuan" unicode="&#58961;" d="M864 64h-704a32 32 0 0 1 0-64h704a32 32 0 0 1 0 64zM222.72 417.92H384v-238.72a34.56 34.56 0 0 1 33.92-34.56h192a34.56 34.56 0 0 1 30.08 34.56V417.92h160.64a30.08 30.08 0 0 1 21.76 51.84L533.76 759.04a30.72 30.72 0 0 1-43.52 0L200.96 469.76a30.08 30.08 0 0 1 21.76-51.84z"  horiz-adv-x="1024" />
      
      <glyph glyph-name="qianbao" unicode="&#58887;" d="M828.6 755.4H195.9c-72.1 0-130.7-72.3-130.7-161.2v-420.7c0-88.9 58.6-161.2 130.7-161.2h632.7c72.1 0 130.7 72.3 130.7 161.2V594.2c0 88.9-58.6 161.2-130.7 161.2z m71.3-581.9c0-49.3-32-89.4-71.3-89.4H195.9c-39.3 0-71.3 40.1-71.3 89.4V594.2c0 49.3 32 89.4 71.3 89.4h632.7c39.3 0 71.3-40.1 71.3-89.4v-420.7zM571.8 385.9c0-70 48-127 107.1-127h175.5V512l-175.5 0.9c-59.1 0-107.1-57-107.1-127z m229-72.2h-122c-29 0-53.5 33.1-53.5 72.2s24.5 72.2 53.4 72.2l122.1-0.8v-143.6z"  horiz-adv-x="1024" />
      
      <glyph glyph-name="qiabao1" unicode="&#58911;" d="M806.1 525H217.2c-13.8 0-25 11.2-25 25s11.2 25 25 25h588.9c13.8 0 25-11.2 25-25s-11.2-25-25-25zM355.9 192.60000000000002c-6.7 0-13.3 2.6-18.2 7.9l-50.4 53.7-50.9-53.8c-9.5-10-25.3-10.5-35.3-1-10 9.5-10.5 25.3-1 35.3l58 61.3c7.6 8 18.2 12.6 29.2 12.6h0.1c11 0 21.7-4.7 29.2-12.7l57.5-61.3c9.4-10.1 8.9-25.9-1.1-35.3-4.8-4.5-11-6.7-17.1-6.7zM878 39.299999999999955H146.5c-41.4 0-75 33.6-75 75V654.2c0 41.4 33.6 75 75 75H878c41.4 0 75-33.6 75-75v-539.9c0-41.4-33.6-75-75-75zM146.5 679.2c-13.8 0-25-11.2-25-25v-539.9c0-13.8 11.2-25 25-25H878c13.8 0 25 11.2 25 25V654.2c0 13.8-11.2 25-25 25H146.5z"  horiz-adv-x="1024" />
      
      <glyph glyph-name="mulu" unicode="&#58897;" d="M640 704H224c-17.7 0-32 14.3-32 32s14.3 32 32 32h416c17.7 0 32-14.3 32-32s-14.3-32-32-32zM960 352H224c-17.7 0-32 14.3-32 32s14.3 32 32 32h736c17.7 0 32-14.3 32-32s-14.3-32-32-32zM640 0H224c-17.7 0-32 14.3-32 32s14.3 32 32 32h416c17.7 0 32-14.3 32-32s-14.3-32-32-32zM96 704H64c-17.7 0-32 14.3-32 32s14.3 32 32 32h32c17.7 0 32-14.3 32-32s-14.3-32-32-32zM96 352H64c-17.7 0-32 14.3-32 32s14.3 32 32 32h32c17.7 0 32-14.3 32-32s-14.3-32-32-32zM96 0H64c-17.7 0-32 14.3-32 32s14.3 32 32 32h32c17.7 0 32-14.3 32-32s-14.3-32-32-32z"  horiz-adv-x="1024" />
      
      <glyph glyph-name="user" unicode="&#59165;" d="M519.51471348 438.36504016c-114.93774404 0-208.48414658 93.50296787-208.48414658 208.48414659s93.51382675 208.48414658 208.48414657 208.48414658 208.48414658-93.50296787 208.48414659-208.48414658-93.50296787-208.48414658-208.48414659-208.48414658z m0 347.39756807a138.98943105 138.98943105 0 1 1 138.98943105-138.98943105 139.10887529 139.10887529 0 0 1-138.98943106 138.98943105zM630.51080469 345.05752611h351.48038203v-69.49471554H630.51080469zM630.51080469 190.46435999000005h351.48038203v-69.49471552H630.51080469zM630.51080469 35.871193879999964h351.48038203v-69.49471553H630.51080469zM131.49531318-44.65580779000004H62.00059766v93.80700704a452.14999278 452.14999278 0 0 0 36.08295908 177.73273476 461.58607177 461.58607177 0 0 0 243.68756308 243.68756309 452.22600234 452.22600234 0 0 0 177.74359366 36.11553574v-69.49471553C305.60129229 437.19231731 131.49531318 263.14063001 131.49531318 49.18377502999999z"  horiz-adv-x="1046" />
      
      <glyph glyph-name="huaban" unicode="&#58923;" d="M1270.645 410.438v-229.5c0-28.125 1.125-59.625 2.813-95.062h-55.125c1.687 33.188 2.813 65.25 2.813 95.063v179.438c-29.813-28.125-62.438-54.563-97.313-79.313-9 15.75-19.125 30.938-31.5 45 29.813 15.75 65.25 43.313 106.875 83.25 41.063 39.375 67.5 70.875 77.625 93.375 15.75-12.375 37.125-23.063 63.562-31.5-22.5-14.063-45-34.313-69.75-60.75zM1317.895 571.313c0-19.125 1.125-39.375 2.813-60.75h-57.937c1.687 21.375 2.813 41.063 2.813 60.75h-73.688c-29.812 0-59.625-1.125-89.437-2.813v47.25c29.812-1.688 59.625-2.813 89.437-2.813h73.688c0 28.125-1.125 52.875-2.813 73.687h60.75c-3.375-21.375-5.063-45.563-5.063-73.687h133.875v79.875h55.125c-1.688-21.375-2.813-47.25-2.813-79.313h105.188c31.5 0 59.063 1.125 81.563 2.813v-47.25c-23.063 1.688-50.063 2.813-81.563 2.813h-105.188c0-15.75 1.125-36 2.813-60.75h-55.125v60.187h-134.438zM1473.707 416.063v-73.688c19.125 10.688 42.75 28.688 69.75 54 27 25.313 47.25 47.813 59.062 67.5 15.75-14.063 34.875-26.438 57.938-37.125-21.375-12.375-42.188-28.688-63.563-48.938-21.375-20.25-62.438-51.188-123.75-93.375v-108.563c0-19.125 11.25-29.25 34.313-29.25h81.562c17.437 0 29.812 3.938 37.125 11.813 6.75 7.875 12.938 27.563 18.563 59.063 17.438-12.375 36-20.25 55.125-23.625-12.375-42.188-24.188-67.5-35.438-76.5-11.25-9-28.687-12.938-51.187-12.938h-129.375c-40.5 0-60.75 14.063-60.75 42.188v108c-17.438-10.688-48.375-27-92.25-50.063-9 15.75-21.375 30.938-37.125 45 37.125 10.688 79.875 30.938 129.375 60.75v105.75c0 29.813-1.125 55.125-2.813 76.5h55.125c-1.125-21.375-1.687-46.688-1.687-76.5zM1938.895 486.938c-7.875-17.438-18-40.5-30.375-68.625 24.75 0 42.188 1.125 52.875 2.813v-39.375c-23.063 1.688-47.25 2.813-73.688 2.813v-79.313c23.063 0 45 1.125 65.813 2.813v-39.375c-24.75 1.688-47.25 2.813-68.625 2.813-1.687-37.125-8.438-69.188-19.688-97.313-11.25-28.125-29.25-59.625-54-95.063-10.688 10.688-24.75 18.563-42.188 23.625 24.75 24.75 43.313 51.75 55.125 81.563 12.375 29.813 19.125 59.063 21.375 87.188-21.375 0-45-1.125-71.438-2.813v39.375c24.75-1.688 48.938-2.813 73.688-2.813v78.75c-31.5 0-57.375-1.125-76.5-2.813v39.375c23.063-1.687 43.875-2.813 63.563-2.813h34.313c10.688 24.75 19.125 47.25 26.438 68.625 6.75 21.375 12.375 41.063 15.75 60.75 17.437-9 33.188-14.063 47.25-15.75-5.063-11.813-11.813-27-19.688-44.438zM1889.957 597.75c23.062 0 46.688 1.125 71.438 2.813v-39.375c-14.063 1.688-37.688 2.813-71.438 2.813h-57.938c-14.063 0-34.313-1.125-60.75-2.813v39.375c19.125-1.688 39.375-2.813 60.75-2.813h57.938zM1861.27 460.5c-14.063-9-26.438-16.875-37.125-23.625-14.063 29.812-29.25 55.125-45 76.5 14.063 5.063 24.75 12.375 31.5 21.375 12.938-14.063 29.25-38.813 50.625-74.25zM1897.832 627c-9-3.375-21.938-10.688-39.375-21.375-5.063 17.438-18.563 41.063-39.375 71.437 14.063 6.75 25.313 14.063 34.313 21.375 20.813-30.375 36-54 44.438-71.438zM2140.832 613.5v-121.5c0-37.125 1.688-76.5 5.063-118.688 3.375-37.125 12.375-77.625 26.438-122.625 14.063-45 33.188-82.125 57.938-111.938-14.063-5.062-28.125-14.062-42.188-26.437-19.125 34.875-34.875 70.313-46.125 105.75-11.25 34.875-19.125 67.5-22.5 97.313-5.063 34.875-9 75.375-10.688 121.5-1.688 45.563-2.813 101.813-2.813 168.75l-31.5-5.063-5.063-426.938c12.375 5.063 21.375 9.562 26.438 12.938-3.375 9-7.875 20.25-12.937 34.313 6.75 3.375 16.875 7.875 29.25 12.938 15.75-40.5 28.125-72 37.125-95.063-10.688-5.062-21.375-11.25-31.5-18.563l-10.688 31.5c-15.75-6.75-28.687-12.938-38.25-18.563-9.563-5.062-20.813-12.375-33.188-21.375-9 15.75-16.875 28.125-23.625 37.125 17.438 9 26.438 23.625 26.438 45l5.063 401.063c-7.313 0-16.875-1.125-29.25-2.813v-131.625c0-40.5-1.125-85.5-2.813-134.438-1.687-35.437-7.312-72-16.875-110.813-9.563-38.813-25.875-78.188-48.938-118.687-12.375 12.375-25.313 21.375-39.375 26.437 24.75 31.5 42.188 67.5 52.875 108 10.688 40.5 16.875 82.688 18.562 126.563v145.125c0 48.937-1.125 88.875-2.813 118.688 21.375-1.688 46.688 1.125 76.5 7.875 29.813 6.75 61.313 17.438 95.063 31.5 5.063-12.375 14.063-26.438 26.438-42.188-16.313-1.688-27-3.375-32.063-5.063zM2296.082 587.063c23.063 0 48.375 1.125 76.5 2.813v-39.375c-12.375 1.688-37.688 2.813-76.5 2.813h-76.5c-21.375 0-40.5-1.125-57.937-2.813v39.375c23.062-1.688 45-2.813 65.813-2.813h68.625zM2326.457 479.063c-9.563-23.062-18-43.313-25.313-60.75 21.375 0 43.313 1.125 65.813 2.813v-39.375c-28.125 1.688-53.438 2.813-76.5 2.813v-92.25c29.813 0 55.125 1.125 76.5 2.813v-39.375c-21.375 1.688-46.688 2.812-76.5 2.812v-95.063c0-23.062 1.125-50.062 2.813-81.563h-47.25c1.687 31.5 2.813 59.625 2.813 84.375v92.25c-23.063 0-42.188-1.125-57.938-2.812v39.375c5.063-1.687 24.75-2.813 57.938-2.813v91.688c-29.813 0-59.063-1.125-87.188-2.813v39.375c26.438-1.687 59.625-2.813 100.125-2.813 6.75 19.125 13.5 38.25 19.688 56.813 6.188 18.563 11.813 41.625 16.875 69.75 10.688-7.313 28.125-14.063 52.875-21.375-6.75-6.188-15.188-20.813-24.75-43.875zM2209.457 539.813c23.062-38.813 37.688-65.813 45-81.563-10.688-5.063-23.063-12.937-37.125-23.625-12.375 31.5-26.438 59.063-42.188 81.563l21.375 10.688 12.938 12.938zM2309.582 629.25c-14.063-9-26.438-17.438-37.125-26.438-14.063 21.375-33.188 45-57.938 71.437 12.375 6.75 23.625 15.75 34.313 26.438 26.438-29.813 46.687-53.438 60.75-71.437zM381.894 504.938c65.812 198.563 223.875 247.5 223.875 247.5s-89.438 28.688-205.875 36.563c-92.25 6.188-217.125-13.5-217.125-13.5s-32.063-343.688 165.938-576.563c1.688-2.25 4.5-5.063 6.75-7.313 0 0 0 0 0 0.563-1.688 65.25-11.813 199.125 26.438 312.75v0zM1004.582 206.25c-9 96.188-36.563 194.063-36.563 194.063s-53.438-141.188-222.188-208.125c-122.625-48.938-268.875-54-338.063-52.312 232.313-196.312 583.313-172.125 583.313-172.125s23.063 139.5 13.5 238.5v0zM377.957 175.312c0 0 302.063-47.25 481.5 131.625 180 178.875 131.625 468.563 131.625 468.563s-317.813 41.625-480.938-120.375c-162.562-162.563-132.188-479.813-132.188-479.813v0zM377.957 175.312z"  horiz-adv-x="2569" />
      
      <glyph glyph-name="sr_baidu" unicode="&#58880;" d="M615.68796445 195.35644445000003h-47.7752889s-6.12807111 3.79107555-6.1280711 14.47594666v100.22684444l-53.88174223-0.68721777v-111.50449778s5.19281778-29.46275555 44.25500445-29.46275555h90.48291555V303.14154667h-26.95395555V195.35644445000003z m-161.6896 107.78510222h-50.5344s-46.6432 1.84547555-62.98737778-51.04867556c-5.66044445-35.29728 5.07221333-48.76288 6.94272-53.21614222 1.8944-4.40547555 16.95744-30.47310222 54.78968888-30.47310222h78.73991112V371.15107555l-26.95168 0.59164445v-68.60117333z m0-107.78510222h-39.8495289s-24.54186667 0.69063111-32.09784888 28.94734222c-3.79107555 12.62592 0.59164445 24.68977778 2.56 30.37184 1.84547555 5.66385778 10.06705778 21.51537778 27.04952888 21.51537778h42.3378489V195.35644445000003z m57.44867555 695.30510222C231.63107555 890.66154667 4.81052445 663.81596445 4.81052445 384s226.82168889-506.66154667 506.63651555-506.66154667S1018.08241778 104.18403554999998 1018.08241778 384 791.26300445 890.66154667 511.44704 890.66154667z m30.89180445-268.88647112c4.03569778 36.84693333 48.09614222 93.38652445 83.41845333 85.31285334 35.19715555-8.02474667 67.32003555-54.74190222 60.79715555-94.91342222-6.35107555-40.2432-38.32376889-93.3376-88.07196444-86.83975112-49.67082667 6.35107555-60.92003555 51.34563555-56.14364444 96.44032z m-104.192 101.41013334c37.21671111 0 67.31889778-42.85326222 67.31889777-95.74968889 0-52.94535111-30.10218667-95.79975111-67.31889777-95.79975111-37.16778667 0-67.32003555 42.85326222-67.32003556 95.79975111 0 52.89528889 30.15111111 95.74968889 67.32003556 95.74968889zM228.18588445 496.31573333s7.95192889 78.83889778 62.49585777 83.71427556c43.34478222 3.71484445 75.24693333-43.71569778 78.56924445-70.84145778 2.04344889-17.59800889 11.19800889-98.13560889-56.19484445-112.63431111-67.24608-14.44977778-92.25216 63.35601778-84.87025777 99.76149333z m513.01034666-339.50606222c-36.87196445-86.8864-171.61102222-41.74506667-171.61102222-41.74506666s-49.69472 15.95050667-107.34136889 3.17667555c-57.67168-12.90012445-107.39370667-7.99857778-107.39370667-7.99857778s-67.44405333-1.62702222-86.66794666 83.58798223c-19.19886222 85.31399111 67.32003555 132.03114667 73.79626666 139.9808 6.37383111 8.07367111 51.29329778 38.61959111 80.09386667 86.86478222 28.94506667 48.29297778 115.49013333 86.91256889 176.41016889-7.97582222 44.92288-64.39025778 121.89127111-123.95747555 121.89127111-123.95747556s57.64664889-45.06965333 20.82133333-131.93329778z m-11.24807111 197.95057778c-73.81788445-1.67708445-76.94336 49.86766222-76.94336 86.78855111 0 38.69468445 7.94965333 93.41155555 67.37009778 93.41155555 59.32032 0 75.29472-57.96522667 75.29472-77.21528888 0-19.37294222 8.09756445-101.36234667-65.72145778-102.98481778z"  horiz-adv-x="1024" />
      
      <glyph glyph-name="time" unicode="&#58895;" d="M512-66C263.47142832-66 62 135.50357167000004 62 384.03214248 62 632.56071416 263.47142832 834.03214248 512 834.03214248 760.52857168 834.03214248 962 632.56071416 962 384.03214248 962 135.50357167000004 760.52857168-66 512-66ZM512 769.71428584C298.98928584 769.71428584 126.28571416 597.01071416 126.28571416 384 126.28571416 170.98928583999998 298.98928584-1.7142858400000023 512-1.7142858400000023 725.01071416-1.7142858400000023 897.71428584 170.98928583999998 897.71428584 384 897.71428584 597.01071416 725.01071416 769.71428584 512 769.71428584ZM656.64285752 351.85714248L495.92857168 351.85714248C487.05714248 351.85714248 479.85714248 359.05714248000004 479.85714248 367.92857168L479.85714248 400.07142832 479.85714248 400.10357168 479.85714248 657.21428584C479.85714248 666.08571416 487.05714248 673.28571416 495.92857168 673.28571416L528.07142832 673.28571416C536.94285752 673.28571416 544.14285752 666.08571416 544.14285752 657.21428584L544.14285752 416.175 656.64285752 416.175C665.51428584 416.175 672.71428584 408.975 672.71428584 400.10357168L672.71428584 367.92857168C672.71428584 359.05714248000004 665.51428584 351.85714248 656.64285752 351.85714248Z"  horiz-adv-x="1024" />
      
      <glyph glyph-name="jiahao" unicode="&#60147;" d="M469.333333 426.666667V725.333333h85.333334v-298.666666h298.666666v-85.333334h-298.666666v-298.666666h-85.333334v298.666666H170.666667v85.333334h298.666666z"  horiz-adv-x="1024" />
      
      <glyph glyph-name="liwu" unicode="&#58968;" d="M898.897236 633.489214 718.143499 633.489214c11.120268 18.983353 16.859993 40.910759 16.859993 62.33265 0 56.446593-38.850843 113.585965-113.166409 113.585965-34.351366 0-63.551408-11.961426-86.803995-35.59059-12.486382-12.656251-21.98778-27.813462-29.43131-43.706431-7.272637 15.872502-16.60826 30.987758-28.884864 43.642986-23.041786 23.673166-52.095495 35.655058-86.426395 35.655058-44.021609 0-70.573335-19.635199-85.101213-36.117592-18.10024-20.518313-28.065196-48.015573-28.065196-77.468372 0-21.422915 5.760191-43.349297 16.881482-62.33265L125.360637 633.490238c-14.925944 0-27.01426-12.109806-27.01426-27.03575l0-245.693772c0-14.926968 12.087293-27.03575 27.01426-27.03575l36.685527 0 0-346.07704c0-14.927991 12.088316-27.036773 27.01426-27.036773l248.76369 0 148.632155 0 248.741177 0c14.927991 0 27.015284 12.108782 27.015284 27.036773L862.212732 333.72292l36.684504 0c14.926968 0 27.01426 12.108782 27.01426 27.03575L925.911496 606.452441C925.911496 621.379409 913.824203 633.489214 898.897236 633.489214zM573.547263 735.891466c12.887518 13.096273 28.675086 19.487843 48.288796 19.487843 43.641963 0 59.137889-32.080649 59.137889-59.557444 0-16.524348-5.550413-32.460296-15.243169-43.706431-10.614755-12.341073-25.331945-18.605753-43.789319-18.626219l-86.23606 0.692778C538.986119 665.652751 548.803719 710.789765 573.547263 735.891466zM331.17412 695.821865c0 16.270569 5.151323 31.071669 14.56881 41.729403 10.407024 11.815093 25.39539 17.828041 44.547589 17.828041 19.404955 0 34.961256-6.28617 47.575552-19.21462 24.470321-25.080212 33.80492-70.869071 36.727483-102.675474l-36.769438 0-47.532573 0C343.620593 633.489214 331.17412 672.674679 331.17412 695.821865zM152.374898 579.438181l237.916645 0 20.497846 0 0-191.665251L152.374898 387.77293 152.374898 579.438181zM216.074685 333.72292l194.71368 0 0-319.064826L216.074685 14.658094 216.074685 333.72292zM464.838376 14.658094 464.838376 579.438181l37.862329 0 56.720839 0 0-564.780087L464.838376 14.658094zM808.163745 14.658094l-194.694237 0L613.469508 333.72292l194.694237 0L808.163745 14.658094zM871.862509 387.77293 613.469508 387.77293l0 191.665251 8.135284 0 0.232291 0 250.025427 0L871.862509 387.77293z"  horiz-adv-x="1024" />
      
      <glyph glyph-name="msnui-more-copy" unicode="&#59322;" d="M169.002 489.682c-57.562 0-104.228-46.646-104.228-104.228 0-57.563 46.666-104.209 104.228-104.209s104.228 46.646 104.228 104.209c0 57.582-46.667 104.228-104.228 104.228zM501.431 489.682c-57.562 0-104.228-46.646-104.228-104.228 0-57.563 46.667-104.209 104.228-104.209s104.228 46.646 104.228 104.209c0 57.582-46.666 104.228-104.228 104.228zM854.638 489.682c-57.563 0-104.23-46.646-104.23-104.228 0-57.563 46.667-104.209 104.23-104.209s104.228 46.646 104.228 104.209c-0.001 57.582-46.666 104.228-104.228 104.228z"  horiz-adv-x="1024" />
      
      <glyph glyph-name="duihao" unicode="&#58931;" d="M380.416 73.856c-10.432 0-20.864 3.968-28.8 11.968L75.968 361.408c-15.936 15.936-15.936 41.664 0 57.6 15.872 15.872 41.664 15.872 57.536 0L380.416 172.16l510.08 510.016c15.872 15.936 41.664 15.936 57.536 0 15.936-15.936 15.936-41.664 0-57.6L409.216 85.76c-7.936-7.936-18.368-11.904-28.8-11.904z"  horiz-adv-x="1024" />
      
      <glyph glyph-name="sousuo" unicode="&#58963;" d="M439.323 120.522c-49.28 0-97.098 9.657-142.126 28.7-43.48 18.389-82.523 44.706-116.044 78.225s-59.841 72.561-78.23 116.04c-19.044 45.027-28.7 92.844-28.7 142.122 0 49.285 9.656 97.105 28.7 142.133 18.388 43.48 44.71 82.52 78.231 116.04C214.673 777.295 253.717 803.613 297.198 822c45.027 19.04 92.846 28.694 142.125 28.694 49.28 0 97.1-9.654 142.127-28.694 43.481-18.386 82.526-44.705 116.045-78.22 33.52-33.52 59.842-72.56 78.23-116.04 19.043-45.028 28.7-92.848 28.7-142.133 0-49.278-9.657-97.095-28.702-142.123-18.388-43.477-44.708-82.52-78.228-116.039S624.93 167.608 581.45 149.22c-45.028-19.043-92.847-28.698-142.128-28.698z m0 676.961c-171.975 0-311.888-139.906-311.888-311.875s139.913-311.874 311.888-311.874 311.888 139.908 311.888 311.874S611.3 797.483 439.323 797.483z m451.355-846.218c-22.122 0-42.904 8.562-58.541 24.116L674.673 128.025l37.039 38.206L869.6 13.172c5.607-5.606 13.092-8.693 21.078-8.693 7.983 0 15.465 3.088 21.07 8.691 5.617 5.622 8.717 13.127 8.717 21.123 0 7.981-3.092 15.463-8.703 21.068l-0.302 0.307-152.746 157.563 38.208 37.035L949.534 92.84c15.571-15.638 24.145-36.423 24.145-58.55 0-22.195-8.626-43.054-24.287-58.736-15.669-15.665-36.515-24.288-58.714-24.288zM281.015 327.245c-42.34 42.321-65.652 98.585-65.643 158.421 0.008 59.819 23.319 116.075 65.637 158.408l37.635-37.62c-66.607-66.629-66.61-175-0.007-241.577l-37.622-37.632z"  horiz-adv-x="1024" />
      
      <glyph glyph-name="fuzhiyemian" unicode="&#59250;" d="M640 576 192 576C156.608 576 128 547.392 128 512l0-512c0-35.328 28.608-64 64-64l448 0c35.392 0 64 28.672 64 64L704 512C704 547.392 675.392 576 640 576zM640 0 192 0 192 512l448 0L640 0zM832 768 352 768C334.336 768 320 753.664 320 736S334.336 704 352 704L832 704l0-544c0-17.664 14.336-32 32-32s32 14.336 32 32L896 704C896 739.392 867.392 768 832 768z"  horiz-adv-x="1024" />
      
      <glyph glyph-name="daima" unicode="&#58884;" d="M984.752 363.28 790.432 169.2C778.432 157.232 758.976 157.232 746.976 169.2 734.992 181.184 734.992 200.592 746.976 212.56L919.616 384.96 746.976 557.344C734.992 569.328 734.992 588.736 746.976 600.704 758.976 612.688 778.432 612.688 790.432 600.704L984.752 406.64C996.752 394.656 996.752 375.248 984.752 363.28ZM347.776-15.568C338.944-30.992 319.376-36.288 304.064-27.376 288.752-18.48 283.52 1.248 292.352 16.672L676.352 783.568C685.184 799.008 704.752 804.288 720.064 795.376 735.376 786.48 740.608 766.752 731.776 751.328L347.776-15.568ZM277.152 169.2C265.152 157.232 245.696 157.232 233.696 169.2L39.36 363.28C27.376 375.248 27.376 394.656 39.36 406.64L233.696 600.704C245.696 612.688 265.152 612.688 277.152 600.704 289.136 588.736 289.136 569.328 277.152 557.344L104.528 384.96 277.152 212.56C289.136 200.592 289.136 181.184 277.152 169.2Z"  horiz-adv-x="1024" />
      
      <glyph glyph-name="saoyisao" unicode="&#58901;" d="M128.236 747.298c0 11.303 9.163 20.466 20.466 20.466h235.377v63.96h-256.359c-35.040 0-63.445-28.405-63.445-63.445v-256.358h63.961l-0 235.377zM896.279 831.724h-256.359v-63.961h235.377c11.303 0 20.466-9.163 20.466-20.466v-235.377h63.961l-0 256.359c0 35.040-28.405 63.445-63.445 63.445zM128.236 20.703v235.376h-63.96v-256.358c0-35.040 28.405-63.445 63.445-63.445h256.359v63.961h-235.378c-11.302 0-20.466 9.163-20.466 20.466zM895.763 20.703c0-11.303-9.163-20.466-20.466-20.466h-235.376v-63.961h256.359c35.040 0 63.445 28.405 63.445 63.445l-0 256.358h-63.961l0-235.376zM192.196 395.514v-23.028c0-11.303 9.163-20.466 20.466-20.466h598.674c11.303 0 20.466 9.163 20.466 20.466v23.028c0 11.303-9.163 20.466-20.466 20.466h-598.674c-11.302 0-20.466-9.163-20.466-20.466z"  horiz-adv-x="1024" />
      
      <glyph glyph-name="yijianfankui01" unicode="&#58926;" d="M360.389512 338.455711l184.919617 0 0-30.819936-184.919617 0 0 30.819936ZM360.389512 415.018457l308.200384 0 0-30.819936-308.200384 0 0 30.819936ZM360.389512 491.582227l308.200384 0 0-30.819936-308.200384 0 0 30.819936ZM511.999488 831.978894c-247.27171 0-447.724091-200.452381-447.724091-447.724091s200.452381-447.724091 447.724091-447.724091 447.724091 200.453405 447.724091 447.724091S759.271198 831.978894 511.999488 831.978894zM761.050728 275.842675c0-34.041304-27.599591-61.639872-61.640895-61.639872l-154.09968 0 0-123.280768L422.029384 214.201779 329.569576 214.201779c-34.040281 0-61.639872 27.599591-61.639872 61.639872L267.929704 522.402163c0 34.040281 27.599591 61.639872 61.639872 61.639872l369.840256 0c34.042327 0 61.640895-27.599591 61.640895-61.639872L761.050728 275.842675z"  horiz-adv-x="1024" />
      
      <glyph glyph-name="xiangshangyuanjiantou" unicode="&#58916;" d="M511.841388-62.930005c60.444651 0 119.101585 11.844769 174.327374 35.20378 53.331649 22.554692 101.228519 54.845119 142.343939 95.965655 41.12156 41.120536 73.411987 89.014336 95.970772 142.344962 23.361057 55.229882 35.20378 113.882724 35.20378 174.331467 0 60.448744-11.842723 119.096469-35.20378 174.326351-22.558785 53.335742-54.848189 101.228519-95.970772 142.350079-41.11542 41.120536-89.013313 73.405847-142.343939 95.965655C630.942973 820.917978 572.286038 832.762747 511.841388 832.762747c-60.448744 0-119.100562-11.844769-174.331467-35.20378-53.331649-22.559808-101.223403-54.850236-142.343939-95.965655-41.12156-41.12156-73.411987-89.014336-95.966679-142.350079-23.360034-55.229882-35.202757-113.877607-35.202757-174.326351 0-60.448744 11.842723-119.101585 35.202757-174.331467 22.554692-53.331649 54.845119-101.224426 95.966679-142.344962 41.120536-41.120536 89.01229-73.40994 142.343939-95.965655C392.740826-51.085236 451.392644-62.930005 511.841388-62.930005zM510.826268 460.099189 345.281931 294.549735c-4.901637-4.89652-11.419074-7.596002-18.35709-7.596002-6.930853 0-13.449313 2.699482-18.35095 7.596002-4.901637 4.901637-7.596002 11.419074-7.596002 18.351973 0 6.938016 2.694365 13.45443 7.596002 18.356067l183.891194 183.891194c10.119475 10.120498 26.586518 10.120498 36.70804 0l183.89017-183.891194c4.89652-4.901637 7.596002-11.418051 7.596002-18.356067 0-6.932899-2.699482-13.455453-7.601118-18.351973-4.89652-4.901637-11.412934-7.596002-18.35095-7.596002-6.932899 0-13.455453 2.694365-18.351973 7.596002L510.826268 460.099189z"  horiz-adv-x="1024" />
      
      <glyph glyph-name="home" unicode="&#58882;" d="M299.035648-25.120768c-4.291584 1.73056-8.45824 3.923968-12.894208 5.121024-49.661952 13.401088-83.7888 55.465984-84.246528 107.098112-0.770048 86.971392-0.364544 173.954048-0.301056 260.931584 0.01536 20.932608 10.585088 33.552384 27.085824 33.263616 16.29184-0.285696 27.495424-13.42464 27.544576-33.793024 0.19968-81.54112 0.018432-163.084288 0.116736-244.626432 0.062464-51.477504 20.272128-71.747584 71.241728-71.754752 122.99264-0.018432 245.98528-0.028672 368.97792 0.00512 48.095232 0.013312 69.08416 21.030912 69.17632 69.718016 0.152576 80.183296-0.049152 160.366592 0.18944 240.548864 0.023552 7.97184-0.768 18.896896 3.7888 23.250944 7.873536 7.524352 19.82976 15.440896 29.739008 15.035392 13.504512-0.55296 21.272576-12.20096 21.193728-27.58144-0.30208-59.116544-0.094208-118.235136-0.088064-177.353728 0.003072-27.181056 0.228352-54.36416-0.08192-81.54112-0.666624-58.371072-32.270336-98.746368-88.546304-113.84832-3.131392-0.840704-5.921792-2.953216-8.870912-4.473856C581.720064-25.120768 440.377344-25.120768 299.035648-25.120768zM505.380864 747.629568c-4.595712-6.788096-8.229888-14.541824-13.928448-20.222976-124.603392-124.23168-249.42592-248.244224-374.237184-372.268032-17.082368-16.974848-24.224768-17.425408-39.053312-2.925568-15.04768 14.713856-15.102976 22.08256-0.262144 37.475328 1.414144 1.466368 2.889728 2.874368 4.334592 4.31104 133.49376 132.634624 266.979328 265.27744 400.487424 397.896704 20.704256 20.566016 36.004864 20.51584 56.84224-0.18432 133.984256-133.106688 267.96032-266.221568 401.89952-399.374336 17.952768-17.847296 17.90976-24.513536 2.377728-40.41728-12.720128-13.024256-24.122368-12.626944-36.401152 0.420864-11.167744 11.86816-22.992896 23.117824-34.555904 34.612224-114.67264 113.98656-229.4016 227.917824-343.86944 342.109184-5.1968 5.184512-8.05888 12.709888-12.008448 19.145728C513.13152 748.014592 509.256704 747.82208 505.380864 747.629568z"  horiz-adv-x="1024" />
      
      <glyph glyph-name="xiangzuojiantou1" unicode="&#58946;" d="M256 383.957333c-0.042667-3.456 0.554667-6.741333 1.322667-10.112 0.341333-1.450667 0.554667-2.858667 1.066666-4.266666 2.304-6.954667 5.717333-13.525333 11.477334-18.688l427.178666-382.762667a42.461867 42.461867 0 0 1 60.288 3.754667c15.573333 17.834667 13.909333 45.312-3.712 61.098666L361.898667 383.957333l391.722666 351.061334c17.621333 15.786667 19.285333 43.264 3.712 61.098666a42.461867 42.461867 0 0 1-60.288 3.754667L269.866667 417.024c-5.76-5.162667-9.173333-11.733333-11.477334-18.688-0.512-1.408-0.725333-2.816-1.066666-4.266667-0.768-3.370667-1.365333-6.656-1.322667-10.112"  horiz-adv-x="1024" />
      
      <glyph glyph-name="xiangyoujiantou" unicode="&#58945;" d="M768 384.042667c0.0512 3.456-0.546133 6.741333-1.314133 10.112-0.341333 1.450667-0.554667 2.858667-1.066667 4.266666-2.304 6.954667-5.717333 13.525333-11.477333 18.688l-427.178667 382.762667a42.461867 42.461867 0 0 1-60.288-3.754667c-15.573333-17.834667-13.909333-45.312 3.712-61.098666l391.722667-350.976-391.722667-351.061334c-17.621333-15.786667-19.285333-43.264-3.712-61.098666a42.461867 42.461867 0 0 1 60.288-3.754667l427.178667 382.848c5.76 5.162667 9.173333 11.733333 11.477333 18.688 0.512 1.408 0.725333 2.816 1.066667 4.266667 0.768 3.370667 1.365333 6.656 1.322666 10.112"  horiz-adv-x="1024" />
      
      <glyph glyph-name="qq-copy" unicode="&#58967;" d="M512 896c-282.767 0-511.979-229.221-511.979-512s229.211-512 511.979-512 511.979 229.221 511.979 512-229.211 512-511.979 512zM793.886 224.427c-13.223-12.342-35.924 1.102-57.744 31.297-9.477-25.566-21.819-49.149-36.144-70.309 30.855-11.020 50.692-28.212 50.692-47.609 0-33.501-59.287-60.611-132.458-60.611-43.418 0-81.767 9.477-106.009 24.244-24.023-14.767-62.593-24.244-106.009-24.244-73.172 0-132.458 27.109-132.458 60.611 0 19.175 19.836 36.586 50.692 47.609-14.546 21.159-26.668 44.742-36.144 70.309-21.819-29.975-44.519-43.641-57.744-31.297-18.073 16.971-11.241 76.922 15.647 133.785 6.171 13.004 12.783 24.685 19.615 34.823 3.747 165.303 112.622 297.987 246.181 297.987h0.441c133.559 0 242.435-132.462 246.181-297.987 6.833-10.139 13.444-21.821 19.615-34.823 26.67-56.864 33.723-116.814 15.65-133.785z"  horiz-adv-x="1024" />
      
      <glyph glyph-name="xiaoxi" unicode="&#58984;" d="M512 776c11.5 0 22.5-3.5 31.9-10.1 9.3-6.6 16.3-15.7 20.3-26.3l9.4-25.2 25.6-8.4c27.7-9.1 53.7-22.4 77.3-39.6 23.4-17 44-37.4 61.1-60.7C773.2 557.5 792 500.2 792 440v-241l9.4-14.1 54-80.9H630.2L617 66.8c-7.7-21.7-21.6-40.3-40.2-53.8-19-13.8-41.4-21-64.8-21s-45.8 7.2-64.7 20.9c-18.6 13.5-32.5 32.1-40.2 53.8L393.8 104H168.6l54 80.9L232 199V440c0 60.2 18.8 117.5 54.4 165.7 17.2 23.3 37.7 43.7 61.1 60.7 23.7 17.2 49.7 30.5 77.3 39.6l25.6 8.4 9.4 25.2c4 10.7 11 19.8 20.3 26.3 9.4 6.6 20.4 10.1 31.9 10.1m0 56c-48 0-88.6-30.4-104.6-72.8C273.1 715.2 176 589 176 440v-224l-54-80.9c-24.8-37.2 1.9-87.1 46.6-87.1h185.7C377.4-17.1 439-64 512-64s134.6 46.9 157.7 112h185.7c44.7 0 71.4 49.8 46.6 87.1L848 216V440c0 149-97.1 275.2-231.4 319.2C600.6 801.6 560 832 512 832zM680 104H344v-56h336v56z"  horiz-adv-x="1024" />
      
      <glyph glyph-name="fankui" unicode="&#59321;" d="M596.736 712.768L0 117.44000000000005 0-86.144 206.08-86.144 802.816 509.184ZM428.672 6.5919999999999845l595.328 0 0-117.824-595.328 0 0 117.824ZM967.744 673.984c0 0 19.008 28.864 0 56.32-19.008 27.392-136.128 135.872-136.128 135.872s-30.848 25.856-60.608 4.736c-20.736-14.656-108.8-105.088-108.8-105.088l206.08-203.648L967.744 673.984z"  horiz-adv-x="1024" />
      
      <glyph glyph-name="biaoqian" unicode="&#58894;" d="M1011.179375 671.17125h-815.4328125c-17.3165625 0-31.36125 13.5721875-31.36125 30.22125s14.045625 30.22125 31.36125 30.22125h815.4328125c17.3165625 0 31.359375-13.5721875 31.359375-30.22125s-14.0315625-30.22125-31.359375-30.22125zM195.7465625 520.014375h564.519375c17.3165625 0 31.359375-13.5703125 31.359375-30.22125s-14.045625-30.22125-31.36125-30.22125h-564.519375c-17.3165625 0-31.36125 13.5721875-31.36125 30.22125s14.0728125 30.22125 31.36125 30.22125zM195.7465625 308.42718749999995h815.4328125c17.3165625 0 31.359375-13.5721875 31.359375-30.22125s-14.045625-30.22125-31.359375-30.22125h-815.4328125c-17.3165625 0-31.36125 13.5703125-31.36125 30.22125s14.0728125 30.22125 31.36125 30.22125zM195.7465625 96.8409375h470.4384375c17.3165625 0 31.36125-13.5721875 31.36125-30.2353125s-14.045625-30.22125-31.36125-30.22125h-470.4384375c-17.3165625 0-31.36125 13.5703125-31.36125 30.22125s14.0728125 30.2353125 31.36125 30.2353125z"  horiz-adv-x="1293" />
      
      <glyph glyph-name="iconfontcuowu" unicode="&#59015;" d="M563.591299 276.371546l289.170135 287.604938c13.665373 13.635273 13.725573 35.69853 0.1204 49.333804-13.635273 13.755673-35.63833 13.755673-49.303704 0.1806l-289.200235-287.725338L227.645855 613.340388c-13.544974 13.575073-35.66843 13.695473-49.303704 0.0602C164.706878 599.825514 164.676778 577.732158 178.281952 564.096884l286.61164-287.544738L175.904056-10.932393c-13.665373-13.575073-13.725573-35.63833-0.1505-49.333804 6.832687-6.892887 15.742269-10.29418 24.712052-10.29418 8.909583 0 17.819165 3.401293 24.621752 10.17378l289.079835 287.544738 289.290535-290.193533c6.832687-6.892887 15.742269-10.29418 24.712052-10.29418 8.909583 0 17.819165 3.401293 24.591652 10.17378 13.635273 13.635273 13.665373 35.69853 0.0602 49.333804L563.591299 276.371546 563.591299 276.371546zM563.591299 276.371546"  horiz-adv-x="1024" />
      
      <glyph glyph-name="iconfontjushoucang111copy8" unicode="&#58919;" d="M349.51715088 805.875C211.06140136 805.875 98.15792847 682.28540039 98.15792847 529.88964844c0-91.06484985 40.88644409-155.64715576 74.33981323-207.68527222 97.10540771-152.39492798 341.96017456-342.42407227 352.18322754-350.32269287 8.36251831-6.50445557 17.65447998-9.75668335 27.87670898-9.75668335 10.22140503 0 19.51419068 3.25222778 27.87753296 9.75668335 10.22140503 7.8986206 255.07617188 197.92858886 352.18157959 350.32269287 32.98782349 52.03811646 74.33898926 116.15570068 74.33898926 207.68527222C1006.95495605 681.82232666 894.05395508 805.875 755.59655762 805.875c-76.19869995 0-147.28381347-37.16949463-195.14025879-102.21569825l-7.4347229-10.22140503-7.43307496 10.22140504C496.80178833 768.24078369 425.25030518 805.875 349.51715088 805.875z m202.57415771-801.00549317l-5.57501221 4.18249512c-2.3236084 1.85806274-249.50115967 193.74609375-342.42489623 339.63656617-37.63421631 59.47119141-66.44119263 110.1159668-66.44119263 181.2019043 0 127.30737305 95.24734497 230.91723633 211.86611938 230.91723632 81.30816651 0 156.11270141-51.5725708 191.42413331-131.48739624h0.92861938l1.85806275-6.50610352c1.39416503-4.64639282 4.64639282-7.43225098 8.36334228-7.43225098s6.96917724 2.7875061 8.36334228 7.43225098l1.85806275 6.50610352h0.92861938c35.31307984 79.91400146 109.65206909 131.48657227 191.42578125 131.48657227 117.08514404 0 211.86611938-103.60986328 211.86611939-230.91723633 0-71.0859375-28.80615234-121.72988891-66.44036865-181.2019043-93.38928223-146.35437012-340.10211182-337.77850342-342.42572022-339.63574219l-5.57501221-4.18249512z"  horiz-adv-x="1195" />
      
      </font>
</defs>
</svg>
